This file was generated by Ched 2.7.0.0.
#TITLE ""
#ARTIST ""
#DESIGNER ""
#DIFFICULTY 0
#PLAYLEVEL
#SONGID ""
#WAVE ""
#WAVEOFFSET 0
#JACKET ""
#REQUEST "ticks_per_beat 480"
#00002: 4
#BPM01: 145
#00008: 01
#TIL00: ""
#HISPEED 00
#MEASUREHS 00
#01116:130000000000130000000012
#01112:00130000
#0111b:000000000013000000000000
#01117:001300001300
#0101b:000000130000000000000013
#01017:1313
#01012:130000000013000000000000
#01016:001300001300
#01010:41
#01216:000012000000000000000012
#01218:000000000012000012000000
#0121c:22
#01212:0022
#01314:001200000000
#01312:000000000012000000000000
#01318:000000000000120000000013
#0131c:2200000000120000
#01316:00000012
#0131a:00220000
#0191b:1313
#01917:0013000000130000
#01912:00130013
#01916:0000001300000013
#01812:00131300
#01816:00000013
#01817:00130000
#0181b:13000013
#01810:41
#02015:00131300
#02012:00000013
#0201b:00130000
#02018:13000013
#02117:0013
#02112:00000013
#02118:130000000000000000000013
#02116:00130000
#02115:23
#0221b:0013
#02212:13000013
#02218:00130000
#02215:000000000013000000000000
#0231b:1313
#02312:00130013
#02315:001300
#02318:000000000013000000000000
#02317:00000013
#0241b:1313
#02412:00130013
#02416:13
#02417:00130000
#02615:000000000000001300230013
#02618:000000231313
#02612:23230000
#0261b:23230000
#0271b:13
#0271a:00130000
#02719:0013
#02718:00000013
#02715:001300000000
#02714:000000000013000000000000
#02713:000013
#02712:000000000000000000000013
#02710:41
#02817:13
#0281b:0013000013000000
#02818:000000000000000000130013
#02815:000000000013
#02812:00130000
#02816:0000001300000000
#02819:003300000000
#02814:000000000033000000000000
#03116:000014000014000014000000
#0311a:1414
#03112:00140014
#0311b:000000000000000000000013
#0321b:1313
#03217:0013000000000000
#03212:00130000
#03216:0000001300000000
#03218:000000000000000000000013
#03215:00000013
#03214:000000000033000000000000
#03219:003300000000
#03312:1313
#03316:0013000000130000
#03317:00130013
#0331b:0000001300000013
#03418:000014000000000000130013
#0341a:000000000014000000000000
#03415:000000000013
#03416:0024
#03414:00240000
#03412:24
#03815:000000000000000000130013
#03818:000000000013
#0381b:1300001300000000
#03817:0013000000000000
#03819:00130000
#03816:1300001300000000
#03812:0013000000000000
#03814:00130000
#03512:13
#03517:00130000
#03514:0013
#03519:00000013
#03616:130000000000000000000013
#0361a:00130000
#03614:0013
#03617:00000013
#04312:13
#0431b:00130000
#04315:0013
#04318:00000013
#04412:13000013
#04416:00130000
#0441b:00131300
#04516:001300130000000000000000
#0451b:231300000000
#04512:000000000000001300130000
#04517:000000231300
#04616:001300000000001300000000
#0461b:231300231300
#04617:001300
#04612:000000230013000000230000
#0471b:13000013
#04717:00130000
#04712:13131300
#04815:13
#04818:00130000
#04812:0013
#0481b:00000013
#0491b:000000000000001300130000
#04917:001300130000000000000000
#04912:231300000000
#04916:000000231300
#05119:001300000000000000130000
#05116:131300000000
#0511b:00130000
#05117:000000000000001300000000
#05114:000000131300
#05212:1313
#05218:001300000013000000000013
#05215:001313000013
#0521b:00130013
#05216:0000000000130000
#05312:130013
#05318:001300000000000000130000
#05313:001300000000
#05319:00130000
#05314:001300
#0531a:000000000013000000000000
#05315:0013
#0531b:000000000000001300000000
#05512:001300000000230000000000
#05515:000013000000000000130000
#05518:000000130000000013000000
#0551b:230000000000001300000000
#05510:41
#05612:001313000000000000130000
#05614:000000001313000000000000
#05618:000000000000000000000000000000130000000013000000
#05615:000000000000000000000013
#05617:23
#05619:00230000
#0561b:0023
#05718:13
#0571b:000000001313000000000000
#05719:000000000000001313000000
#05712:00000023
#05714:0023
#05716:00230000
#05815:001300000013000000130013
#05812:001300000000
#05818:230013000013
#0581b:00232300
#05914:00120000
#0591c:12
#0591a:00000012
#05912:0012
#0591f:11
#0601c:1212
#06012:00120000
#06018:00120000
#06016:0012
#06318:120000120000000012000012
#06316:000012000000000000120000
#06312:0012
#06412:120000000000000000000012
#06416:001200120000
#0641c:00120000
#06418:000000000012000000120000
#0651c:12
#06512:00120000
#0651a:0012
#06514:00000012
#06618:131313000000
#06615:001300130013000000000000
#06612:0023
#0661b:0023
#0021b:13
#00215:001300001300
#00218:00131313
#00212:000000000013000000000013
#0031b:1313
#00312:000013
#00315:000013000013000000000000
#00318:00130013
#00515:000000000000000000130013
#00518:000000000013
#00512:13
#00519:001300000000
#00514:00130000
#0051b:000000000013000000000000
#00516:0013
#00412:13
#00418:001300001300
#00415:00131313
#0041b:000000000013000000000013
#01416:00130000
#0141b:001300001300
#01412:130000000000130000000013
#01417:000000000013000000000000
#01715:000000000000000000000013
#0171a:001200000000
#0171c:000000000012000000000000
#01716:0012
#01712:2200000000120000
#01718:00000012
#01714:00220000
#03015:000000000000000000130013
#03018:000000000013
#03016:13
#03012:0013000013000000
#0301b:00130000
#03017:0000001300000000
#03014:003300000000
#03019:000000000033000000000000
#0391b:13
#03916:00130000
#03919:0013
#03914:00000013
#03910:41
#04017:130000000000000000000013
#04013:00130000
#04019:0013
#04016:00000013
#05017:001300000000001300000000
#05012:231300231300
#05016:001300
#0501b:000000230013000000230000
#0541b:1313
#05415:001300000013000000000013
#05418:001313000013
#05412:00130013
#05417:0000000000130000
#06114:00120000
#06118:12
#0611a:00000012
#06116:0012
#06112:12
#06218:1212
#06216:00120000
#0621c:00120000
#06212:0012
#06713:00140000
#06714:0014
#06715:00000014
#06717:001400000000
#06718:000000000014000000000000
#06719:000014
#0671a:000000000000000000000014
#06712:24
#0671f:21
#06815:000000000000000000130013
#06818:000000130000000000001300
#06816:14
#06812:000000133300000000000000140000000000000000000000
#0681b:000000000000000000133300000000000000000000000000
#06810:41
#07116:000014000014000014000014
#0711a:00140014
#07112:1414
#07212:1414
#07216:0014001400000000
#0721a:00140000
#07215:000034000000000000000013
#07218:00000013
#07217:000000000034000000000000
#0731a:1414
#07316:0014140000141400
#07312:0000001400000014
#07416:000014000014000000000000
#07415:000000000000000000130013
#07418:000000000013
#0741a:2424
#07412:00240000
#0691a:14
#06912:000000000000000000000014
#06919:00140000
#06918:0014
#06917:00000014
#06915:001400000000
#06914:000000000014000000000000
#06913:000014
#07018:000000000000000000130013
#07015:000000130000000000001300
#07016:14
#0701b:000000133300000000000000000000000000000000000000
#07012:000000000000000000133300000000000000000000000000
#0701a:0014
#0751b:130000000013130000000000
#07512:000013130000000000130013
#07516:0013
#07517:000013
#07612:130013
#0761b:0013
#07617:13000013
#07616:000013130013000000000000
#07818:000000000000000000130013
#07815:000000000013
#0781b:13
#07814:001300000000
#07819:00130000
#07812:000000000013000000000000
#07817:0013
#07712:130000000013130000000000
#0771b:000013130000000000000000
#07717:0013
#07716:000000000000000013130013
#00612:13
#00618:001300001300
#00615:00131313
#0061b:230000000013000000000013
#00712:1313
#0071b:000013
#00718:000013000013000000000000
#00715:00130013
#0081b:13
#00815:001300001300
#00818:00131313
#00812:000000000013000000000013
#0091b:13
#00915:000013000000000000230000
#00918:00132300
#00912:000000000013000000000000
#01517:1313
#0151b:00130000
#01512:000000000013000000000000
#01516:001300001300
#01518:000000000000000000000012
#01618:000012000000000000000012
#01616:000000000012000012000000
#01612:22
#0161c:0022
#02516:13
#0251b:13
#02517:0000001300000000
#02512:0000001300000000
#02912:13
#02913:00130000
#02914:0013
#02915:00000013
#02918:001300000000
#02919:000000000013000000000000
#0291a:000013
#0291b:000000000000000000000013
#0371b:130000000000230000000000000000130000000000001300
#03717:0013000013002300
#03716:1300230000130000
#03712:0013000013002300
#04218:000000000000000000130013
#04215:000000000013
#04212:1300001300000000
#04216:0013000000000000
#04214:00130000
#04217:1300001300000000
#0421b:0013000000000000
#04219:00130000
#04112:130000000000230000000000000000130000000000001300
#04116:0013000013002300
#04117:1300230000130000
#0411b:0013000013002300
#07912:130000000013130000000000
#0791b:130013130000000000130013
#07917:0013
#07916:000013
#0801b:130013
#08012:0013
#08016:13000013
#08017:000013130013000000000000
#0811b:130000000013130000000000
#08112:000013130000000000000000
#08116:0013
#08117:000000000000000013130013
#08212:13
#08219:001300000000
#08214:00130000
#0821b:000000000013000000000000
#08216:0023
#08218:00000026
#01156:6363
#01152:00530000
#01157:000013
#0135c:4200000000220000
#01358:0062
#0135a:00420000
#0195b:63436343
#01957:0023000000230000
#01952:33533353
#01956:0000002300000023
#01852:0053
#0185b:53
#01856:00000023
#01857:00230000
#02055:0053
#02052:00000023
#0205b:00230000
#02058:53
#0225b:0063
#02252:63000053
#0235b:63
#0245b:0063
#02452:00230053
#02456:63
#02857:53
#0285b:0023000043000000
#02852:00530000
#02856:0000002300000000
#0325b:5313
#03257:0023000000000000
#03252:00630000
#03256:0000002300000000
#03352:5353
#03356:0023000000230000
#03357:00530053
#0335b:0000002300000023
#03552:63
#03557:00630000
#03554:0063
#03559:00000063
#03656:63
#0365a:00630000
#03654:0063
#04352:53
#0435b:00630000
#04355:0063
#04358:00000053
#04452:53000053
#04456:00230000
#0445b:0063
#0475b:63000063
#04757:00230000
#04752:0053
#04855:63
#04858:00530000
#04852:0053
#0485b:00000063
#05256:0000000000230000
#05252:0063
#05658:0000000000230000
#0565b:0063
#05758:53
#05752:00000013
#0605c:5262
#06052:00520000
#06058:00520000
#06056:0062
#0595c:52
#05952:0062
#0655c:52
#06552:00620000
#0655a:0052
#06554:00000062
#06652:0013
#0665b:0013
#0025b:53
#00258:0053
#0035b:5343
#00358:00000043
#00958:0043
#00955:00000033
#0095b:53
#0125c:52
#01252:0052
#00452:63
#00455:0063
#00552:33
#00554:00330000
#00556:0033
#01456:00630000
#01452:5363
#0145b:000013
#02156:00530000
#02158:53
#02155:13
#02157:0053
#03452:34
#03456:0034
#03454:00340000
#0395b:53
#03956:00530000
#03959:0053
#03954:00000053
#04057:53
#04053:00530000
#04059:0053
#0545b:0053
#05457:0000000000230000
#06158:52
#06156:0062
#06258:5262
#06256:00520000
#0625c:00520000
#06252:0062
#07252:6434
#07256:0024002400000000
#0725a:00544400
#0735a:6464
#07356:0024640000246400
#07352:0000002400000024
#0745a:4444
#07452:00340000
#0715a:00140014
#07152:1414
#0755b:53
#07556:0053
#0765b:0043
#07657:53000043
#08256:0033
#08258:00000046
#08252:33
#08254:00330000
#0515b:00430000
#05159:00000043
#05558:00130000
#05555:00000013
#0585b:0053
#06358:00520000
#07752:63
#07757:0063
#0785b:43
#07859:00430000
#07857:0043
#00652:63
#00655:0063
#00752:6333
#00755:00000033
#0085b:53
#00858:0053
#01557:5353
#0155b:00630000
#01556:000013
#01756:0052
#01752:3200000000220000
#01754:00320000
#01652:62
#0165c:0062
#0255b:53
#02556:53
#02557:0000002300000000
#02552:0000002300000000
#03056:63
#03052:0023000033000000
#0305b:00630000
#03057:0000002300000000
#03152:00000054
#0375b:5300430000230000
#03756:5300430000230000
#03757:0023000063003300
#03752:0023000063003300
#0385b:5300002300000000
#03859:00530000
#03857:0023000000000000
#03856:5300002300000000
#03852:0023000000000000
#03854:00530000
#04152:6300330000230000
#04156:0023000053004300
#04157:6300330000230000
#0415b:0023000053004300
#04252:6300002300000000
#04256:0023000000000000
#04254:00630000
#04257:6300002300000000
#0425b:0023000000000000
#04259:00630000
#06755:00000034
#06754:0034
#06753:00340000
#06752:34
#06959:00440000
#06958:0044
#06957:00000044
#0695a:44
#07056:54
#0705b:0023000000000000
#07055:00630000
#07052:0000002300000000
#0705a:0044
#07952:63
#07957:0063
#08052:0033
#08056:63000033
#0815b:53
#08156:0053
#06856:64
#06852:0023000034000000
#06858:00530000
#0685b:0000002300000000
#01057:5353
#0105b:00630000
#01056:000013
#0023b0:13
#002380:002300000000
#002380:0013
#0023b0:000023
#0033b0:13
#003380:002300000000
#004320:13
#004350:002300000000
#004350:0013
#004320:000023
#006320:13
#006350:002300000000
#006350:0013
#006320:000023
#007320:13
#007350:002300000000
#0083b0:13
#008380:002300000000
#008380:0013
#0083b0:000023
#0093b0:13
#009380:002300000000
#010370:13
#0103b0:002300000000
#0103b0:00130000
#010370:000000000023000000000000
#010370:0013
#0103b0:000023
#011360:13
#011320:002300000000
#011320:00130000
#011360:000000000023000000000000
#011360:0013
#011320:000023
#0123c0:12
#012380:002200000000
#012320:0012
#012360:000022
#013380:00001222
#0133c0:0000000000520000
#014320:13
#014360:002300000000
#014360:00130000
#014320:000000000023000000000000
#014320:0013
#014360:000023
#015370:13
#0153b0:002300000000
#0153b0:00130000
#015370:000000000023000000000000
#015370:0013
#0153b0:000023
#016320:12
#016360:002200000000
#0163c0:0012
#016380:000022
#017360:00001222
#017320:0000000000520000
#0183b0:1323
#018370:00530000
#018321:0013
#018361:00000053
#019321:23
#0193b0:13230000
#019370:0053000000000000
#019321:00132300
#019361:0000005300000000
#0193b0:00001323
#019370:0000000000530000
#019321:00000013
#019361:0000000000000053
#020321:23
#020380:1323
#0203b0:00530000
#020351:0013
#020321:00000053
#021351:23
#021380:13
#0213b0:00230000
#021361:00130000
#021321:0023
#021370:0013
#0213b0:00000023
#022320:13
#022350:00230000
#0223b0:0013
#022370:00000023
#022321:00000013
#023361:23
#0233b0:13
#023370:00230000
#024360:1323
#024320:00530000
#0243b1:0013
#024371:00000023
#024320:00000013
#025360:33000023
#025320:0000005300000000
#0253b1:13000023
#025371:0000005300000000
#028371:13230000
#0283b1:0053000000000000
#028391:003300000000
#028320:00132300
#028360:0000005300000000
#028340:000000000033000000000000
#030360:13230000
#030320:0053000000000000
#030340:003300000000
#0303b1:00132300
#030371:0000005300000000
#030391:000000000033000000000000
#031321:00000014
#032361:24
#0323b0:13230000
#032370:0053000000000000
#032390:003300000000
#032321:00132300
#032361:0000005300000000
#032341:000000000033000000000000
#033321:13230000
#033361:0053000000000000
#033370:00132300
#0333b0:0000005300000000
#033321:00001323
#033361:0000000000530000
#033370:00000013
#0333b0:0000000000000053
#034370:23
#035320:13
#035340:00230000
#035371:00130000
#035391:0023
#035340:0013
#035360:00000023
#035391:00000013
#0363b1:23
#036360:13
#036340:00230000
#0363a1:00130000
#036381:0023
#036340:0013
#036320:00000023
#0373b0:13230000
#037370:0053000000000000
#037361:13230000
#037321:0053000000000000
#037321:00001323
#037361:0000000000530000
#037370:00001323
#0373b0:0000000000530000
#0383b0:1300005300000000
#038370:0053000023000000
#038390:00330000
#038361:1300005300000000
#038321:0053000023000000
#038341:00330000
#0393b1:13
#039391:00230000
#039360:00130000
#039340:0023
#039391:0013
#039371:00000023
#039340:00000013
#040320:23
#040371:13
#040391:00230000
#040330:00130000
#040350:0023
#040391:0013
#0403b1:00000023
#041321:13230000
#041361:0053000000000000
#041370:13230000
#0413b0:0053000000000000
#0413b0:00001323
#041370:0000000000530000
#041361:00001323
#041321:0000000000530000
#042321:1300005300000000
#042361:0053000023000000
#042341:00330000
#042370:1300005300000000
#0423b0:0053000023000000
#042390:00330000
#043320:13
#043350:00230000
#0433b1:00130000
#043381:0023
#043350:0013
#043320:00000023
#043381:00000013
#0443b1:23
#044320:1323
#044360:00530000
#0443b1:0013
#044371:00000023
#044320:00000013
#045360:23
#0473b0:1323
#047370:00530000
#047321:0013
#047351:00000023
#0473b0:00000013
#048380:23
#048351:13
#048321:00230000
#048380:00130000
#0483b0:0023
#048321:0013
#048361:00000023
#0483b0:00000013
#049370:23
#052320:00001323
#052360:0000000000530000
#0543b0:00001323
#054370:0000000000530000
#0563b0:00001323
#056380:0000000000530000
#057380:13
#0573b0:00230000
#0583b0:0013
#058380:00000023
#0593c0:12
#059380:00522200
#059321:0012
#059361:00000052
#060361:22
#0603c0:1232
#060380:00320022
#060321:00120022
#060361:0032
#061381:12
#0613c1:00522200
#061360:0012
#061320:00000052
#062320:22
#062381:1232
#0623c1:00320022
#062360:00120022
#062320:0032
#063380:00120000
#0633c0:0022
#0653c0:12
#0653a0:00220000
#065321:00120000
#065341:0022
#0653a0:0012
#065380:00000022
#065341:00000012
#066361:22
#068361:14
#068321:000000533300000000000000000000000000000000000000
#068351:00230000
#068380:00130000
#0683b0:000000000000000000533300000000000000000000000000
#068360:0024
#070360:14
#0703b0:000000533300000000000000000000000000000000000000
#070380:00230000
#070351:00130000
#070321:000000000000000000533300000000000000000000000000
#070361:0024
#072321:14240000
#072361:0054000000000000
#072351:003400000000
#0723a0:00142400
#072360:0000005400000000
#072370:000000000034000000000000
#0733a0:14240000
#073360:0054000000000000
#073361:00142400
#073321:0000005400000000
#0733a0:00001424
#073360:0000000000540000
#073361:00000014
#073321:0000000000000054
#074361:24
#0753b1:13
#075371:002300000000
#075361:0013
#075321:000023
#076371:13
#0763b1:002300000000
#077321:13
#077361:002300000000
#077371:0013
#0773b1:000023
#079321:13
#079361:002300000000
#079371:0013
#0793b1:000023
#080361:13
#080321:002300000000
#0813b1:13
#081371:002300000000
#081361:0013
#081321:000023
