This file was generated by Ched 2.7.0.0.
#TITLE ""
#ARTIST ""
#DESIGNER ""
#DIFFICULTY 0
#PLAYLEVEL
#SONGID ""
#WAVE ""
#WAVEOFFSET 0
#JACKET ""
#REQUEST "ticks_per_beat 480"
#00002: 4
#BPM01: 145
#00008: 01
#TIL00: ""
#HISPEED 00
#MEASUREHS 00
#01012:000000000000000000000013
#0101b:1313
#01018:00130000
#01010:41
#01218:230000000000000000000013
#0121b:000000000013000000000000
#01215:0023
#0131b:001300000000
#01318:000000000013000000000013
#01312:2313
#01315:00230000
#01812:0013
#0181b:13
#01810:41
#0201b:1313
#02018:00130013
#02215:13
#02218:00000013
#02118:000000130000000000000013
#02112:00130000
#02115:0013
#0211b:2313
#02312:13000013
#02318:00000013
#02418:00130000
#0241b:13
#02415:00000013
#03615:000000000000000000000013
#0361b:1313
#03618:00130000
#0511b:001300130000000000000000
#05115:131300000000
#05118:000000000000001300130000
#05112:000000131300
#05515:001300130000000000000000
#0551b:231300000000
#05512:000000000000001300130000
#05518:000000231300
#05510:41
#05712:13
#05715:00000023
#05815:001300000000000000000000
#0581b:231300230000
#05818:001300
#05812:000000230013000000000000
#0021b:13
#00212:000000000013000000000000
#00215:000000000000000000000013
#00218:0013
#00318:00001313
#00315:000000000013000013000000
#0031b:13
#00515:1313
#00518:001300000000
#00512:00130000
#0051b:000000000013000000000000
#01712:000013000000000000000013
#01715:000000000013000000000000
#0171b:2313
#01718:00230000
#00618:000000000013000000000000
#00615:0013
#00612:000000000000000000000013
#0061b:13
#00718:13001313
#00715:000000000013000013000000
#00912:000000000013000000000000
#00915:13000023
#00918:0023
#02518:13
#0251b:0000001300000000
#03718:130000000000000000000013
#03715:0013
#0371b:00230000
#03712:00000023
#00412:13
#0041b:000000000013000000000013
#00415:0013
#00815:000000000013000000000000
#00818:0013
#0081b:000000000000000000000013
#00812:13
#01118:1313
#0111b:00130000
#01112:000000000000000000000013
#0141b:000000000000000000000013
#01412:1313
#01415:00130000
#01515:1313
#01512:00130000
#0151b:000000000000000000000013
#01615:230000000000000000000013
#01612:000000000013000000000000
#01618:0023
#0191b:13
#01915:00130000
#01918:0013
#01912:00000013
#02715:13
#02718:0013
#02710:41
#02815:1313
#02818:000000000013000000000000
#0291b:13
#02912:0013
#0301b:13
#03015:000000000013000000000000
#03018:0013
#03115:13
#03118:0013
#03215:130000000000130000000013
#03218:000000000013000000130000
#0331b:13
#03318:0013000000000000
#03312:0013
#03315:0000000000130000
#03412:001400000000
#03414:000000000014000000000000
#0341a:2424
#03418:00240000
#03512:1313
#03515:00130000
#03812:00130000
#03815:130000000000000000000013
#04018:000000000000000000000013
#04012:1313
#04015:00130000
#04115:130000000000000000000013
#04118:0013
#04112:00230000
#0411b:00000023
#0391b:1313
#03918:00130000
#03910:41
#0421b:00130000
#04218:13
#04215:00000013
#04312:13
#0431b:0013
#04415:13
#04412:0013
#04418:0013
#04515:13
#0451b:13
#0471b:13
#04712:0013
#04818:13
#0481b:0013
#04815:0013
#04918:13
#04912:13
#05215:0013
#0531b:131300000000
#05315:001300000000000000000000
#05312:000000130013000000000000
#05318:001300
#05412:0013
#0561b:0013
#06015:13
#06018:00130000
#06218:13
#06215:00130000
#06312:13
#06318:000013000000000013000013
#06315:00131313
#0631b:000000000013000000000000
#06412:13
#06418:000013000000000000130000
#06415:000000130000130000000013
#0641b:000000000013000000000000
#06518:13
#0651b:000000130000000000000013
#06512:00000013
#06615:13
#06618:00130000
#06612:0023
#0661b:0023
#06718:000013000000000013000013
#06715:00131313
#0671b:000000000013000000000000
#06712:23
#0671f:21
#06812:13
#06815:000033330033000000000000
#06810:41
#06915:000013000000000013000013
#06918:00131313
#06912:000000000013000000000000
#0691b:13
#0701b:13
#07018:000033330033000000000000
#07118:000013000000000013000013
#07115:00131313
#0711b:000000000013000000000000
#07112:13
#07212:13
#07218:00000013
#07215:000033330033000000000013
#0731b:13
#07318:0013000000000000
#07312:0013
#07315:0000000000130000
#07414:001400000000
#07412:000000000014000000000000
#0741a:24
#07418:00240000
#07416:0024
#07512:13
#0751b:000000000013000000000000
#07518:000000000000000000000013
#07515:0013
#07615:00001313
#07618:000000000013000013000000
#07612:13
#07818:1313
#07815:001300000000
#0781b:00130000
#07812:000000000013000000000000
#0771b:13
#07712:000000000013000000000013
#07718:0013
#07915:000000000013000000000000
#07918:0013
#0791b:000000000000000000000013
#07912:13
#08015:13001313
#08018:000000000013000013000000
#08118:000000000013000000000000
#08115:0013
#08112:000000000000000000000013
#0811b:13
#08218:1323
#08215:000013000000000000230000
#0821b:00130000
#08212:000000000013000000000000
#0591f:11
#02612:23232323
#0261b:23232323
#01852:0053
#0185b:53
#0205b:5353
#02058:00230023
#02255:63
#02352:63
#02458:00230000
#0245b:63
#05752:53
#05755:00000013
#06652:0013
#0665b:0013
#0025b:53
#00258:0063
#0585b:0053
#00655:0063
#0065b:53
#00758:63001313
#0215b:13
#02558:53
#0255b:0000002300000000
#03758:53
#0375b:00130000
#03755:0063
#03752:00000013
#0035b:53
#00358:00001313
#00452:63
#00455:0053
#00555:1313
#00552:00130000
#00858:0053
#00852:63
#00955:53000013
#00958:0013
#01158:5353
#0115b:000000530000000013000000
#01258:53
#01255:0063
#01352:1353
#01355:00130000
#01555:6363
#01552:000000630000000013000000
#01452:5353
#01455:000000530000000013000000
#0175b:1363
#01758:00130000
#01655:63
#01658:0053
#0195b:13
#01955:00130000
#01958:0013
#01952:00000013
#02755:53
#02758:0063
#02855:5313
#0295b:53
#02952:0063
#0305b:53
#03058:0013
#03155:53
#03158:0063
#03255:5313
#0335b:53
#03352:0053
#03358:0023000000000000
#03355:0000000000230000
#0345a:1414
#03458:00140000
#03552:5353
#03555:00530000
#0365b:6363
#03658:00630000
#03855:53
#03852:00230000
#04155:63
#04158:0053
#04152:00130000
#0415b:00000013
#0395b:6363
#03958:00630000
#04052:5353
#04055:00530000
#0425b:00230000
#04258:63
#04255:00000053
#04352:53
#0435b:0053
#04455:53
#04452:0053
#04458:0053
#04555:53
#0455b:53
#0475b:63
#04752:0063
#04858:63
#0485b:0063
#04855:0063
#04958:63
#04952:63
#05255:0053
#05452:0063
#0565b:0053
#06558:53
#0655b:00530000
#06852:53
#0705b:63
#07252:53
#0735b:53
#07358:0023000000000000
#07352:0063
#07355:0000000000230000
#0745a:14
#07458:00140000
#07456:0014
#07552:63
#07555:0053
#07655:00001313
#07652:63
#07858:1313
#0785b:00130000
#0775b:53
#07758:0063
#07958:0053
#07952:63
#08055:53001313
#08155:0063
#0815b:53
#08258:1313
#0825b:00130000
#08255:00000013
#0105b:6363
#01058:000000630000000013000000
#0023b0:13
#002380:000033230000000000000000
#002380:0013
#0023b0:000000000000000033230000
#0033b0:13
#003380:000033230000000000000000
#004320:13
#004350:000033230000000000000000
#004350:0013
#004320:000000000000000033230000
#0063b0:13
#006380:000033230000000000000000
#006350:0013
#006320:000000000000000033230000
#007380:13
#0073b0:000033230000000000000000
#008320:13
#008350:000033230000000000000000
#008380:0013
#0083b0:000000000000000033230000
#009350:13
#009320:000033230000000000000000
#0103b0:130000000033330000000000
#010380:000033330000000023000000
#011380:130000000033330000000000
#0113b0:000033330000000023000000
#012380:13
#0123b0:002300000000
#012350:0013
#012320:000023
#013320:0013
#013350:00000023
#014320:130000000033330000000000
#014350:000033330000000023000000
#015350:130000000033330000000000
#015320:000033330000000023000000
#016350:13
#016320:002300000000
#016380:0013
#0163b0:000023
#0173b0:0013
#017380:00000023
#0183b0:13
#018380:00230000
#018320:0013
#018350:00000023
#0203b0:1333
#020380:00530053
#0213b0:23
#022350:13
#022320:000000000033230000000000
#023320:13
#023350:000000003333230000000000
#0243b0:1323
#024380:00530000
#025380:13000023
#0253b0:0000005300000000
#027350:13
#027320:000033230000000000000000
#027380:0013
#0273b0:000000000000000033230000
#028350:13
#028320:000033230000000000000000
#0293b0:13
#029380:000033230000000000000000
#029320:0013
#029350:000000000000000033230000
#0303b0:13
#030380:000033230000000000000000
#031350:13
#031320:000033230000000000000000
#031380:0013
#0313b0:000000000000000033230000
#032350:13
#032320:000033230000000000000000
#0333b0:13230000
#033380:0053000000000000
#033320:00001323
#033350:0000000000530000
#035320:1333
#035350:00330023
#0363b0:1333
#036380:00330023
#037380:13
#0373b0:00230000
#037350:0013
#037320:00000023
#038350:1323
#038320:00530000
#0393b0:1333
#039380:00330023
#040320:1333
#040350:00330023
#041350:13
#041320:00230000
#041380:0013
#0413b0:00000023
#042380:1323
#0423b0:00530000
#042350:00000013
#043320:33
#043350:00230000
#0433b0:0013
#043380:00000023
#044350:13
#044320:00230000
#044380:0013
#0443b0:00000023
#044321:0013
#044351:00000023
#045351:13
#045321:00000023
#0453b0:13
#045380:00000023
#046380:1333
#046390:003300000033003300000000
#0463a0:003333003300
#0463b0:00330023
#046321:1333
#046331:003300000033003300000000
#046341:003333003300
#046351:00330023
#0473b1:13
#047381:00230000
#047321:0013
#047351:00000023
#048381:13
#0483b1:00230000
#048351:0013
#048321:00000023
#0483b0:0013
#048380:00000023
#049380:13
#0493b0:00000023
#049321:13
#049351:00000023
#050351:1333
#050341:003300000033003300000000
#050331:003333003300
#050321:00330023
#0503b0:1333
#0503a0:003300000033003300000000
#050390:003333003300
#050380:00330023
#052350:1333
#052340:003300000033000000000000
#052330:003333000000
#052320:00330023
#0533b0:0013
#0533a0:000000000000003300000000
#053390:000033
#053380:00000023
#054320:1333
#054330:003300000033000000000000
#054340:003333000000
#054350:00330023
#0563b0:1333
#0563a0:003300000033000000000000
#056390:003333000000
#056380:00330023
#057320:1333
#057350:00330023
#057340:003333
#057330:000000000033003300000000
#0583b0:0013
#058380:00000023
#059320:13
#059350:00230000
#0593b0:0013
#059380:00000023
#060350:0013
#060320:00000023
#0613b0:13
#061380:00230000
#061320:0013
#061350:00000023
#062380:0013
#0623b0:00000023
#065380:1323
#0653b0:00330000
#068320:13
#068350:000033330033230000000000
#0703b0:13
#070380:000033330033230000000000
#072320:13
#072350:000033330033230000000000
#0733b0:13230000
#073380:0053000000000000
#073320:00001323
#073350:0000000000530000
#075320:13
#075350:000033230000000000000000
#075350:0013
#075320:000000000000000033230000
#076320:13
#076350:000033230000000000000000
#0773b0:13
#077380:000033230000000000000000
#077380:0013
#0773b0:000000000000000033230000
#079320:13
#079350:000033230000000000000000
#079380:0013
#0793b0:000000000000000033230000
#080350:13
#080320:000033230000000000000000
#0813b0:13
#081380:000033230000000000000000
#081350:0013
#081320:000000000000000033230000
