This file was generated by Ched 2.7.0.0.
#TITLE ""
#ARTIST ""
#DESIGNER ""
#DIFFICULTY 0
#PLAYLEVEL
#SONGID ""
#WAVE ""
#WAVEOFFSET 0
#JACKET ""
#REQUEST "ticks_per_beat 480"
#00002: 4
#BPM01: 145
#00008: 01
#TIL00: ""
#HISPEED 00
#MEASUREHS 00
#01017:13
#01016:000013130000000000000013
#01018:000000000013000000000000
#0101b:0013
#01012:130013
#01010:41
#01116:13
#01117:000013130000000000000000
#01115:000000000013000000000000
#01112:0013
#0111b:130013
#0111a:000000000000000000000012
#01114:000000000000000000000012
#01218:000000120000000012000000
#01216:000012000000000000120000
#01212:1222
#01214:000000000012000000000000
#0121a:000000000000000000000012
#0121c:22
#01314:001200000000
#0131a:000000000012000000000000
#01318:00120000
#01317:0012
#01316:000000000000000000000013
#0131c:22002212
#01312:00220000
#0191b:130000000013130000000013
#01917:0013000000130000
#01912:000013130000000013130000
#01916:0000001300000013
#01812:1313
#01816:00000013
#01817:00130000
#0181b:13
#01815:000000120012000000000000
#01819:000000000000000000120012
#01810:41
#01717:000000000000120000000013
#0171a:001200000000
#01714:000000000012000000000000
#01716:00120000
#01712:22002212
#0171c:00220000
#02015:0013
#02012:000000130013000000130000
#0201b:000000130000000000130013
#02018:13
#02112:000000001300000000130000000000000000130000000000
#02118:130000000000130000000013
#02115:23130000
#0211b:000000130000000000001300000000000000000000000000
#0221b:1313
#02216:00130000
#02212:13000013
#02219:000000120012000000000000
#0231b:1313
#02312:00130013
#02315:001300
#02318:000000000013000000000000
#02316:0013
#02616:000000000000001200000012
#02618:000000001212
#02612:22220024
#0261c:22220000
#0261a:0024
#0271a:14140014
#02712:14001414
#02716:000014140014140014000000
#0271b:000000000000000000000013
#02710:41
#02812:1300001300001400
#02817:130000000013130000000000
#02816:000013130000000000001400
#0281b:0013000000130000
#0281a:000000000000000000000014
#02912:131300130000
#02916:000000130000000000000013
#02915:000000000013000000130000
#0291b:13000013
#02918:000000131300
#02917:0013000000000000
#03116:140014140014140014140014
#0311b:1313
#03112:00130013
#03212:13130013
#0321b:1313
#03215:001200001200
#03219:000000000012000000000000
#03218:000000000000000000000013
#03217:0013000000130000
#03216:0000001300000000
#03312:130000000012130000000012
#0331b:13130013
#0331c:001200001200
#0341c:001200000000
#03412:000000000012000000000000
#03416:000000230000000000120012
#03418:000000000012
#03414:2323
#03419:00230000
#03417:2323
#03619:000000000000000000000012
#03618:1212
#03612:00120012
#04416:00120012
#0441c:00120000
#04418:1212
#04412:12
#04515:001313190000000000000000
#0451b:230000000013000000000000
#04518:000000000000001313000000
#04512:000000000000230000190013
#04615:001316001316000016000000
#04618:000000000000001300000000
#0461b:2323
#04612:00230023
#04916:001414000014001414180014
#04912:24180000
#0491a:0024
#05018:001200000000001200000000
#05016:000014001214000014000000
#05012:2424
#0501a:00240024
#05115:001300130000000013000000
#05118:000013000000001300130000
#0511b:00130000
#05112:1c001c13
#05212:1c1c1300
#05215:001300000013000000001200
#05218:001313000000
#0521b:0013
#05213:00000012
#05217:000000000000000000000000000000130000000000001200
#05313:191300000000
#05316:001300000000000000000000
#05314:000000190013000000000000
#05317:001300
#05315:000000191300
#05318:000000000000001300000000
#05312:00000013
#0531b:00000013
#05414:19
#05417:001300000000000000000000
#0541a:000013000000000000120000
#05412:00191300
#05415:001300
#05418:000000000013000000001200
#0541b:0013
#05416:000000000000000000000000000000130000000000001200
#05515:001300000000000013000000
#05518:000013000000001300000000
#0551b:00130013
#05512:2c132c13
#05510:41
#05617:001300000000000000000000
#0561a:000013000000000000120000
#05615:001300
#05618:000000000013000000000012
#05612:00291300
#05616:000000000000000000000000000000130000000012000000
#05614:29
#0561b:0023
#05712:13002c23
#05717:001300
#05714:000000000013000000000000
#05718:000000000000001300000000
#05715:000013
#0571a:14230000
#0571b:00000023
#05817:001300000000000000000000
#0581a:001300000000
#05815:001300
#05818:000000000013000000001200
#05816:000000000000000000120012
#05812:00292300
#0581b:0023
#05814:29
#05912:000000120012000000000000
#05914:000000121200
#05916:000000000000000000120012
#0591c:12
#05918:0012
#0591f:11
#06014:121200000000
#06012:000000120012000000000000
#0601c:1212
#06018:00120000
#0611a:121200121200
#0611c:000000120012000000000000
#06118:00000012
#06112:12
#06116:0012
#0621c:000000120012000000000000
#06212:1212
#06216:00120000
#06312:121200000000
#06316:000000121200
#06314:000000120012000000120012
#06412:120012000000000000120000
#06414:000000120012000000000000
#06416:000000000000120000000012
#06516:12
#0651c:12
#06512:00120000
#0651a:000000000000120000000012
#06514:00000012
#0661c:12
#06619:001200000000000000000000
#06616:001200000000
#06618:00122600
#06615:001200
#06612:000000000012260000000000
#07416:230000000000230000120012
#07418:000000000012
#07412:001200000000
#0741c:000000000012000000000000
#07419:2323
#07414:00230000
#07417:00230000
#07512:14131413
#0751b:13
#07515:001300001300
#07518:000000000013000000000000130000000013000000000000
#07516:000000000012000000000012
#07612:14131400
#0761b:130000000000130013130000
#07615:001300000000
#07618:000000000013000000000000000000000000000000000000
#07616:000000000012000000140000
#07617:0000000000000013
#00212:13131313
#0021b:130000000013000000000000
#00215:001300001300
#00218:000000000013000000000000130000000013000000001300
#0031b:1313
#00316:0013
#00317:00000013
#00315:001300001200
#00312:13130013
#00318:000000000013000000000000000000000000000000000000
#00319:000000000012000000000000
#0061b:13002313
#00615:000000001300000000000000000000000013000000001300
#00618:000000000013000000001300000000001300000000000000
#00612:23131300
#0071b:1313
#00717:00000013
#00715:001300001200
#00718:000000000013000000000000000000000000000000000000
#00712:23130013
#00719:000000000012000000000000
#00716:0013
#00915:000000000013000000001200000000000000000000000000
#00912:13002314
#00916:000000000014
#0091a:000000000000000000000014
#00918:001300000000
#0091b:23130023
#00917:0013
#00412:130000000013000000000000
#00418:001300001300
#00415:000000000013000000000000130000000013000000001300
#0041b:00131313
#00815:000000000013000000001300000000001300000000000000
#0081b:00131300
#00818:000000001300000000000000000000000013000000001300
#00812:13002313
#0351c:1212
#03516:00120012
#03514:12
#03518:000000000000000000000012
#0301b:1300001300000000
#03016:130000000013130000001400
#03017:000013130000000000000000
#03012:000000130000000000000000000000130000000000001400
#0301a:00000014
#07712:130000000012000000000000
#07718:000013000012000013000000
#07715:000000000013000000000000000000000013000000001200
#0771b:00130013
#0771a:0014
#07719:000000000000000000000012
#07714:0014
#0051a:000000000000000000000014
#00516:000000000014
#00512:13001314
#00515:000000000013000000000000
#00518:001300000000
#0051b:13130000
#07812:130000000013130000000000
#0781b:130013130000000000000000
#07818:000000000000000000120012
#07816:000000000012
#01416:13
#01417:000013130000000000000013
#01415:000000000013000000000000
#01412:0013
#0141b:130013
#01517:13
#01516:000013130000000000000000
#01518:000000000013000000000000
#0151b:0013
#01512:130013
#01514:000000000000000000000012
#0151a:000000000000000000000012
#01616:000000120000000012000000
#01618:000012000000000000120000
#0161c:1222
#0161a:000000000012000000000000
#01614:000000000000000000000012
#01612:22
#02416:13000013
#02412:0000130000000013
#0241b:00001313
#02417:0000130000130013
#02512:0000001300000000
#02516:13
#0251b:000013000000130013130000
#02518:000000130013000000000000
#0371b:130000230000000013000000
#03717:0013000013002700
#03719:000000000000000000000012
#03716:1300000000130000
#03712:000013270000130000230000
#03715:000000000012000000000000
#0381b:13230000
#03817:0013000000000000
#03816:130000140012
#03812:000013270014000014000000
#0381a:000000000014000014000000
#03818:000000000000000000120012
#04015:000000000000000000000012
#04016:1212
#0401c:00120012
#03912:1212
#03918:00120012
#0391a:12
#03916:000000000000000000000012
#03910:41
#04112:130000230000000013270000
#04116:0013000013000000
#04115:000000000000000000000012
#04117:1300270000130000
#0411b:000013000000130000230000
#04119:000000000012000000000000
#04212:130000230014000014000000
#04216:000000130000000000000000140000000000120000001200
#04217:13270000
#0421b:001300000000
#0421a:000000000014000014000000
#04218:000000000012
#04314:12120012
#0431a:12121200
#04312:0012000000000000
#04316:0000001200000000
#0431c:0000001200000000
#04318:0000000000120000
#04818:00120012
#04812:00120000
#04816:1212
#0481c:12
#0471a:12120012
#04714:12121200
#0471c:0012000000000000
#04718:0000001200000000
#04712:0000001200000000
#04716:0000000000120000
#06712:240000140000000000140013
#0671a:14001414
#06716:000014140014140014000000
#0671f:21
#0681b:1300001300000000
#06816:130000000013130000001400
#06817:000013130000000000000000
#06812:000000130000000000000000000000130000000000001400
#0681a:00000014
#06810:41
#0691b:1313
#06917:000000130000000000000013
#06918:000000000013000000130000
#06912:13000013
#06915:000000131300
#06916:0013000000000000
#0691a:001400000000
#07116:140014140014140014140014
#07112:1313
#0711b:00130013
#0721b:13130013
#07212:1313
#07219:001200001200
#07215:000000000012000000000013
#07216:0013000000130000
#07217:0000001300000000
#0731b:1313
#07312:130012130000000012130000
#0731c:000000000012000000000012
#07012:1300001300001400
#07017:130000000013130000000000
#07016:000013130000000000001400
#0701b:0013000000130000
#0701a:000000000000000000000014
#0791a:1414
#07912:13
#07918:000013000012000013000012
#07915:000000000013000000000000130000000013000000000000
#0791b:00130013
#0801a:1414
#08012:130000000000130013130000
#08018:000013000012000000000000
#08015:000000000013000000000000000000000000000000000000
#0801b:00130000
#08016:0000000000001413
#0811b:13
#08115:000013000000000013000012
#08118:000000000013000000000000140000000013000000000000
#08112:00131413
#0811c:000000000012000000000000
#08116:000000000012000000000000
#08119:000000000000000000000012
#0821b:130000000013130000000000
#08212:130013130000000013130000
#08216:0023
#08217:00000023
#01057:53
#01056:00630000
#01052:000013
#0105b:0053
#01156:63
#01157:00530000
#01152:0053
#0115b:000013
#01258:00220000
#01256:00000022
#0125c:52
#01252:0052
#01357:0062
#01352:00320000
#0135c:4242
#0195b:63436343
#01957:0023000000230000
#01952:33533353
#01956:0000002300000023
#01852:0053
#0185b:53
#01856:00000023
#01857:00230000
#02055:0053
#02052:00000023
#0205b:00230000
#02058:53
#0225b:0063
#02256:00230000
#02252:63000053
#0235b:63
#02756:00344400
#0275a:44
#02752:00000034
#02857:5353
#0285b:0023000000230000
#02856:00630000
#02852:0000002300000000
#02854:0043
#02952:3333
#0295b:53000043
#02957:0023000000000000
#0315b:4343
#03152:00330033
#0325b:5353
#03252:00633300
#03257:0023000000230000
#03256:0000002300000000
#03352:5353
#0335b:43630063
#03356:00130013
#03357:0013
#04456:00220062
#04458:0052
#04452:52
#0525b:0053
#05257:0000000000230000
#05452:0063
#05456:0000000000230000
#05652:0063
#05656:0000000000230000
#05752:53000013
#0575b:00000013
#0605c:5252
#06058:00520000
#0595c:52
#05958:0052
#0655c:52
#06552:00620000
#0655a:0052
#06554:00000062
#06652:0016
#06658:0016
#0755b:53
#07558:0053
#0765b:53004353
#07652:0054
#07657:0000000000000023
#07656:00000034
#0025b:53
#00258:0053
#0035b:5343
#00357:00000053
#00352:00000033
#0065b:53
#00652:0063
#0075b:5343
#00757:00000053
#00752:00000033
#00952:6333
#0095b:00000043
#0455b:13
#04552:0013
#0465b:1313
#04652:00130013
#04952:14
#0495a:0014
#05052:1414
#0505a:00140014
#02155:13530000
#02158:5353
#0215b:0023000000000000
#02152:0000002300000000
#05852:0013
#0585b:0013
#00452:63
#00455:0063
#0085b:0053
#00852:63
#0355c:5252
#03556:00520052
#03658:5252
#03652:00520000
#03056:6363
#03052:0023000000230000
#03057:00530000
#0305b:0000002300000000
#03059:0033
#07752:63
#0055b:13530000
#00552:53
#00558:0013
#00555:00130000
#0785b:13530000
#07852:53
#07856:00130000
#07857:0013
#01456:63
#01457:00530000
#01452:0063
#0145b:000013
#01557:53
#01556:00630000
#0155b:0063
#01552:000013
#01656:00220000
#01658:00000022
#01652:62
#0165c:0062
#01757:0052
#01752:3232
#0175c:00420000
#02456:53000053
#0245b:00005353
#02452:0000230000000023
#02457:0000000000230023
#02556:53
#02552:0000002300000000
#0375b:53430000
#03757:0023000000003700
#03752:00476333
#03756:0000000000230000
#0385b:53430000
#03857:0023000000000000
#03852:00470000
#03952:6262
#03958:00620062
#04056:6262
#0405c:00620000
#04152:63330047
#04156:0023000000000000
#0415b:00005343
#04157:0000370000230000
#04252:63330000
#04256:0023000000000000
#04257:00370000
#04354:52520000
#04352:0022000000000000
#04356:0000002200000000
#0435a:00626200
#0435c:0000002200000000
#04358:0000000000220000
#04858:00220052
#04856:0062
#0485c:52
#0475a:62620000
#0475c:0022000000000000
#04758:0000002200000000
#04754:00525200
#04752:0000002200000000
#04756:0000000000220000
#06152:62
#06156:0062
#06252:6262
#06256:00620000
#06756:00443400
#0675a:00000044
#06752:34
#06856:6363
#06852:0023000000230000
#06857:00530000
#0685b:0000002300000000
#06859:0033
#0695b:4343
#06952:63000033
#06956:0023000000000000
#07152:3333
#0715b:00430043
#07252:6363
#0725b:00534300
#07256:0023000000230000
#07257:0000002300000000
#0735b:6363
#07352:33530053
#07357:00130013
#07356:0013
#07057:5353
#0705b:0023000000230000
#07056:00630000
#07052:0000002300000000
#07054:0043
#07952:63
#07955:0063
#08052:63003363
#0805a:0064
#08056:0000000000004423
#0815b:53
#08252:13630000
#0825b:63
#08257:00130013
#08256:0013
#03457:1313
#03456:00130000
#05155:00130000
#05158:00000013
#05552:00130000
#0555b:00000013
#07456:1313
#07457:00130000
#0023b0:13
#002380:002300000000
#002380:0013
#0023b0:000023
#0033b0:13
#003380:002300000000
#003370:00000013
#0043b0:23
#004321:13
#004351:002300000000
#004351:0013
#004321:000023
#005321:13
#005351:000053230000000000000000
#0053b0:00130000
#005380:000000000053230000000000
#0063b0:13
#006380:002300000000
#006320:0013
#006350:000023
#0073b0:13
#007380:002300000000
#007370:00000013
#0083b0:23
#008321:13
#008351:002300000000
#0083b1:0013
#008381:000023
#009321:13
#009351:002300000000
#010371:13
#0103b1:00230000
#010360:00130000
#010320:0023
#0103b1:0013
#010371:000023
#011361:13
#011321:00230000
#011370:00130000
#0113b0:0023
#011321:0013
#011361:000023
#0123c1:1222
#012381:00320000
#012320:0012
#012360:00000032
#013320:22
#013370:0012
#013320:00000022
#014360:13
#014320:00230000
#014371:00130000
#0143b1:0023
#014320:0013
#014360:000023
#015370:13
#0153b0:00230000
#015361:00130000
#015321:0023
#0153b0:0013
#015370:000023
#016320:1222
#016360:00320000
#0163c1:0012
#016381:00000032
#0173c1:22
#017371:0012
#0173c1:00000022
#0183b1:1323
#018371:00530000
#018320:0013
#018360:00000053
#019320:23
#0193b1:13230000
#019371:0053000000000000
#019320:00132300
#019360:0000005300000000
#0193b1:00001323
#019371:0000000000530000
#019320:00000013
#019360:0000000000000053
#020320:23
#020381:1323
#0203b1:00530000
#020350:0013
#020320:00000053
#021350:23
#021381:13230000
#0213b1:0053000000000000
#021350:00132300
#021320:0000005300000000
#021381:0013
#0213b1:00000023
#022321:1323
#022361:00530000
#0223b0:0013
#022370:00000023
#022321:00000013
#023361:23
#0233b0:13
#023370:00230000
#023370:00000013
#0243b0:23
#024361:1323
#024321:00530000
#0243b0:00001333
#024370:0000000000530053
#0253b0:23
#024361:00000013
#024321:0000000000000053
#025361:33000023
#025321:0000005300000000
#028371:13
#0283b1:0053000000000000
#028391:00230000
#028360:00130000
#028320:0000005300000000
#028340:0023
#028371:0013
#0283b1:0000000000530000
#028381:00000023
#0293b1:13230000
#029371:0053000000000000
#030361:13
#030321:0053000000000000
#030341:00230000
#030370:00130000
#0303b0:0000005300000000
#030390:0023
#030361:0013
#030321:0000000000530000
#030351:00000023
#0323b1:13230000
#032371:0053000000000000
#032320:00132300
#032360:0000005300000000
#0323b1:00001323
#032371:0000000000530000
#033321:13
#033361:000053230000000000000000
#0333b0:00130000
#033370:000000000053230000000000
#033321:0013
#033361:000000000000000053230000
#0333b0:00000013
#033370:000000000000000000000053
#034370:23
#0353c0:12
#035380:00220000
#035361:00120000
#035321:0022
#0353c0:0012
#035380:00000022
#035361:00000012
#036321:22
#036380:12
#0363c0:00220000
#036321:00120000
#036361:0022
#036380:0012
#0363c0:00000022
#0373b0:13230000
#037370:0053000000000000
#037320:00001323
#037360:0000000000530000
#0383b0:13230000
#038370:0053000000000000
#039320:12
#039360:00220000
#039381:00120000
#0393c1:0022
#039320:0012
#039360:00000022
#039381:00000012
#0403c1:22
#040360:12
#040320:00220000
#0403c1:00120000
#040381:0022
#040360:0012
#040320:00000022
#041320:13230000
#041360:0053000000000000
#0413b0:00001323
#041370:0000000000530000
#042320:13230000
#042360:0053000000000000
#043340:12522200
#043320:0052000000000000
#043360:0000005200000000
#0433a1:00125222
#0433c1:0000005200000000
#043381:0000000000520000
#044321:1222
#044361:00520000
#044380:0012
#0443c0:00000022
#044361:00000012
#045321:22
#0473a1:12522200
#0473c1:0052000000000000
#047381:0000005200000000
#047340:00125222
#047320:0000005200000000
#047360:0000000000520000
#0483c0:1222
#048380:00520000
#048361:0012
#048321:00000022
#048380:00000012
#0493c0:22
#0523b0:00001323
#052370:0000000000530000
#054320:00001323
#054360:0000000000530000
#056320:00001323
#056360:0000000000530000
#057320:13
#057370:00230000
#0593c0:12000052
#059380:00523200
#0603c0:3232
#060380:00320022
#059341:122200000000
#060341:00001222
#061321:12000052
#061361:00523200
#062321:3232
#062361:00320022
#0623a0:122200000000
#0623a0:00001222
#0633c0:123200000000
#0633a0:000000320032000000320032
#063380:000000323200
#0643c0:323200000000
#0643a0:000000320032000000000000
#064380:00003222
#0653c0:12
#065380:00220000
#065321:00120000
#065361:0022
#0653a0:0012
#065370:00000022
#065341:00000012
#066371:22
#068361:13
#068321:0053000000000000
#068341:00230000
#068370:00130000
#0683b0:0000005300000000
#068390:0023
#068361:0013
#068321:0000000000530000
#068351:00000023
#069321:13230000
#069361:0053000000000000
#070371:13
#0703b1:0053000000000000
#070391:00230000
#070360:00130000
#070320:0000005300000000
#070340:0023
#070371:0013
#0703b1:0000000000530000
#070381:00000023
#072321:13230000
#072361:0053000000000000
#0723b0:00132300
#072370:0000005300000000
#072321:00001323
#072361:0000000000530000
#0733b1:13
#073371:000053230000000000000000
#073320:00130000
#073360:000000000053230000000000
#0733b1:0013
#073371:000000000000000053230000
#073320:00000013
#073360:000000000000000000000053
#074360:23
#0753b0:13
#075380:002300000000
#075380:0013
#0753b0:000023
#0763b0:13
#076380:002300000000
#076320:0014
#076360:000024
#0763b0:00000013
#076370:0000000000000053
#0773b0:23
#077321:13
#077351:002300000000
#078321:13
#078361:000053230000000000000000
#0783b0:00130000
#078370:000000000053230000000000
#079320:13
#079350:002300000000
#079350:0013
#079320:000023
#080320:13
#080350:002300000000
#0803a0:0014
#080360:000024
#080320:00000013
#080360:0000000000000053
#081320:23
#0813b1:13
#081381:002300000000
#0823b1:13
#082371:000053230000000000000000
#082320:00130000
#082360:000000000053230000000000
