This file was generated by Ched 2.7.0.0.
#TITLE ""
#ARTIST ""
#DESIGNER ""
#DIFFICULTY 0
#PLAYLEVEL
#SONGID ""
#WAVE ""
#WAVEOFFSET 0
#JACKET ""
#REQUEST "ticks_per_beat 480"
#00002: 4
#BPM01: 145
#00008: 01
#TIL00: ""
#HISPEED 00
#MEASUREHS 00
#00214:0014
#00218:14
#0031a:14
#00314:0014
#04712:14
#04718:0014
#00418:14
#00412:0014
#00612:14
#00618:0014
#00712:14
#00718:0014
#00814:14
#0081a:0014
#02118:14
#02114:0014
#0221a:14
#02214:0014
#02318:14
#02312:0014
#02418:14
#02414:0014
#02714:00140014
#0271a:2414
#02710:41
#0431a:14
#04314:0014
#05114:0014
#0511a:24
#05312:14
#05318:0014
#05412:14
#05518:14
#05514:0014
#05510:41
#0671a:2414
#06714:00140014
#0671f:21
#06818:1414
#06812:00140000
#06810:41
#06918:00140014
#06914:2414
#07112:2414
#07118:00140014
#07214:1414
#0721a:00140000
#0731a:14
#07312:0014
#0791a:0014
#07912:14
#08012:14
#08018:00140014
#08014:0014
#01218:14
#01214:0014
#01614:14
#01618:0014
#01914:14
#01918:0014
#02918:00140014
#02912:1414
#03118:1414
#03114:00140014
#03312:14
#0331a:0014
#03414:1414
#03418:00140000
#0371a:00000014
#03718:1434
#04112:00000014
#04114:1434
#04418:14
#04412:0014
#04814:14
#0481a:0014
#0521a:14
#0561a:14
#05612:0014
#05718:14
#05814:14
#0631a:14
#06314:0014
#06418:14
#06412:0014
#0651a:14
#06514:0014
#0661a:14
#06616:00140000
#06612:0014
#07012:14
#07016:00140000
#0701a:0014
#0761a:14
#07614:00140014
#07618:0014
#0781a:1414
#07812:00140000
#08112:14
#0811a:0014
#08214:1424
#08218:00140024
#07512:0014
#0751a:14
#0771a:14
#07712:0014
#0251a:14
#02518:0014
#02612:0014
#0591f:11
#0741a:24
#07416:00240000
#07412:0024
#03818:34
#04214:34
#0451a:003434340000000000000000
#04518:000000000000003434340000
#0461a:003434343434343434000000
#04912:003434340000000000000000
#04914:000000000000003434340000
#05012:003434343434343434000000
#01010:41
#01810:41
#03910:41
#03758:54
#0375a:00000024
#04152:00000024
#04154:64
#0525a:64
#05452:54
#0575a:0014
#05758:54
#05852:0014
#05854:64
#0755a:14
#07952:14
#00652:14
#0255a:64
#02558:0024
#00258:14
#005380:1424
#009340:1424
#010380:14
#0103a0:0024
#011340:14
#011320:0024
#013380:1424
#014340:14
#014320:0024
#015380:14
#0153a0:0024
#017340:1424
#0183a0:14
#018380:0024
#020320:14
#020340:0024
#0253a0:14
#025380:0054
#0263a0:24
#0283a0:14
#028390:00340000
#028380:0024
#030320:14
#030330:00340000
#030340:0024
#032380:14
#032390:00340000
#0323a0:0024
#035380:1424
#036340:1424
#037380:1434
#0373a0:00000054
#038380:3424
#039340:1424
#040380:1424
#041340:1434
#041320:00000054
#042340:3424
#0453a0:143434340000000000000000
#045380:000000000000343434340000
#0463a0:343434343434343434000000
#046380:00000024
#049320:143434340000000000000000
#049340:000000000000343434340000
#050320:343434343434343434000000
#050340:00000024
#0523a0:14
#052380:0024
#054320:14
#054340:0024
#057380:14
#0573a0:0024
#058340:14
#058320:0024
#0593a0:14
#059380:0024
#060320:14
#060340:0024
#061380:14
#0613a0:0024
#062340:14
#062320:0024
