This file was generated by Ched 2.7.0.0.
#TITLE " "
#ARTIST ""
#DESIGNER ""
#DIFFICULTY 0
#PLAYLEVEL
#SONGID ""
#WAVE ""
#WAVEOFFSET 0
#JACKET ""
#REQUEST "ticks_per_beat 480"
#00002: 4
#BPM01: 175
#00008: 01
#TIL00: ""
#VOLUME: ""
#HISPEED 00
#MEASUREHS 00
#0161a:14
#01610:41
#04418:16
#04412:0016
#04410:41
#0731a:14
#0731f:11
#0741a:14
#07512:14
#09112:0016
#09118:26
#09218:16
#09212:0016
#09318:1616
#01714:14
#0001a:14
#00112:14
#0041a:14
#00410:41
#0051a:14
#00612:14
#00712:14
#01512:14
#00818:14
#00914:14
#01018:14
#01114:14
#02012:14
#02118:14
#0241a:14
#0251a:14
#02614:14
#02714:14
#02918:14
#03012:14
#03112:14
#02818:14
#03718:16
#03712:0016
#04518:1616
#04818:16
#04812:0016
#0531a:14
#05412:14
#05512:14
#05812:14
#05810:41
#0591a:14
#0621a:14
#06312:14
#06614:14
#06718:14
#07018:14
#07612:14
#0771a:1414
#07814:1414
#07918:1414
#08412:1616
#08410:0000000000000041
#09518:16
#09512:0016
#09618:16
#09612:0016
#1011a:14
#00218:14
#00314:14
#03612:0016
#03618:26
#03610:41
#04118:16
#04112:0016
#04012:0016
#04018:16
#04612:16
#04618:0016
#04712:1616
#04918:1616
#05118:16
#05112:0016
#0521a:14
#08318:2616
#0831f:21
#08812:1616
#08718:2616
#09412:1616
#09812:1616
#09918:1616
#10012:14
#012380:1636
#013380:3636
#014380:26
#0183a0:14
#0193a0:24
#022320:14
#023320:24
#0323a0:14
#0333a0:24
#034320:14
#035320:24
#038380:1626
#039320:1626
#042380:1626
#043320:1626
#050320:1626
#056380:14
#057380:24
#060340:14
#061340:24
#0643a0:14
#0653a0:24
#068320:14
#069320:24
#071340:14343434
#072340:24
#080320:14
#081320:24
#085380:1626
#086320:1626
#089380:1626
#090320:1626
#097380:1626
#102320:1434
#103320:34343424
