This file was generated by Ched 2.7.0.0.
#TITLE " "
#ARTIST ""
#DESIGNER ""
#DIFFICULTY 0
#PLAYLEVEL
#SONGID ""
#WAVE ""
#WAVEOFFSET 0
#JACKET ""
#REQUEST "ticks_per_beat 480"
#00002: 4
#BPM01: 175
#00008: 01
#TIL00: ""
#VOLUME: ""
#HISPEED 00
#MEASUREHS 00
#00016:1200001200000000
#00018:00120000
#0001a:00000022
#00116:1212001200000012
#00118:00120000
#0011a:0000000000222200
#00114:00000000000000000000002200000000
#0021a:12
#00312:1300000000230000
#00315:0023230000002300
#0031b:00000023000023000000000000002300
#00318:0023
#00412:23131313
#0041b:2300131300000013
#00417:0000000000130000
#00410:41
#00512:13131300
#00518:00000000000000000000001300001300
#00515:0000000000131300
#0051b:0013
#00517:0013130000000000
#0061b:13131313
#00612:2300132300000023
#00616:0000000000230000
#0071b:13131300
#00715:00000000000000000000001300000000
#00718:0000000000132300
#00716:0023230000000000
#00712:0023
#00812:241400000000
#00816:001400140000140000000000
#0081a:000000000000000000140014
#00912:241400000000
#00916:001400140000140000000000
#0091a:000000000000000000140014
#01012:241400000000
#01016:001400240000240000000000
#0101a:000000000000000000240014
#01116:001400140000000000000000
#01112:241400000000
#01114:000000000013230000000000
#01119:000000000013230000000000
#01216:00140014
#01212:24
#0121a:2424
#01316:00140014
#01312:24
#0131a:0024
#01413:00000000000014000000000000000000001400000000000000000014000000000000000000140000000000000000001400000000000000000000140000000000
#01414:00000014000000001400000000140000
#01412:2400000000000000000000140000000000000000001400000000000000000000
#0151b:2300000000131313
#01515:00230000
#01518:0000002300000000
#01512:0026
#01617:13
#01612:1300000000130000
#0161b:0000131300000000
#01619:0000000000000013
#01614:0000000000000013
#01610:41
#0171b:0000001300000000
#01712:0000001300000000
#01718:00000023
#01715:00000023
#01915:00000013
#02017:1300001300000000
#0201b:00130000
#02012:1300001300000000
#02212:1300001324000000
#0221b:0013130000000000
#02215:00000013000000000000000000000000
#02218:13000000000000130000000000002400
#02214:0000000000240000
#02216:00000024
#02312:1400000000130000
#0231b:0013131300000000
#02318:0000000000001313
#02315:00000000000000000000000000130000
#02316:0000001400140000
#0231a:24
#02117:0000001300000000
#02112:00001313
#02115:0000000000130000
#0211b:0000000000130013
#02418:0013000000130013
#02415:00130013
#02412:23
#02516:0013000000000000
#0251b:00000013000013002300000000000000
#02817:1313
#02816:00130000
#0281b:00000000000000000000000000000013
#02815:0000000000001313
#02812:13
#02915:13
#02918:0013000000000000
#02912:00000013000000000000000013000000
#0291b:0013
#02914:0000000000130013
#02919:0000000000130013
#03016:1300000000230000
#0301b:1300000000130000
#03017:0013002300000000
#03012:0013001300000013
#03217:0013000000130000
#03212:0013000000130000
#03216:1313
#0321b:1313
#0341b:1300000013130000
#03416:1313
#03412:0000130000001313
#03417:00130000
#03418:00000013
#0351b:13000023000023000000000000002300
#03515:1323230000002300
#03518:0023
#03512:0000000000230000
#03619:0013001300000000
#03617:00130000
#03616:0000000013000013
#0361b:2300000013130013
#03612:23130000
#03610:41
#03717:0013130013000000
#03712:00000013000013001300130000001400
#03716:0000000000000014
#03816:0014001400140014
#03812:00142414
#0381a:0000000024000014
#04014:0013001300000000
#0401b:00130000
#04016:00130000
#04012:2300000013130013
#04017:0000000013000013
#04116:0013002400000014
#0411b:00130000
#0411a:0000000024000014
#04112:0000000000240000
#04212:0014000024000014
#0421a:00142414
#04216:0000001400140014
#04412:13231323
#04417:1313131313130013
#04410:41
#04516:1313131313130000
#0451b:00231323
#04814:0013001300000000
#0481b:23130000
#04817:0000000013000013
#04812:0000000013130013
#04816:00130000
#04916:0013130000001313
#0491b:0000131300001300
#0491a:0000000000000014
#05016:00000013000000000000000000000000
#05012:0013130000130000
#05013:0000001300000000
#05015:0000000013000013
#05018:00000013
#05116:0000000000140000
#05112:13231323
#0511b:23132300
#05118:0023000000000000
#05115:0000002300000000
#05216:1300000000130000
#0521b:23131313
#05212:0000131300000013
#0531b:13131300
#05315:00000000000000000000001300001300
#05318:0000000000131300
#05312:0013
#05316:0013130000000000
#05412:13131313
#0541b:0000132300000023
#05417:2300000000230000
#05512:13131300
#05518:00000000000000000000001300000000
#05515:0000000000132300
#05517:0023230000000000
#0551b:0023
#0561b:00130000
#05619:2313
#05617:00000013
#05616:0000001300000000
#05614:1313
#05612:00000013
#05719:13
#05714:13
#05716:0000001414000014
#0571a:00000000000000140000000014000000
#05712:0000000000140000
#06012:00130000
#06014:2313
#06016:00000013
#06019:2323
#06017:0000002300000000
#0601b:00000023
#06114:13
#06116:0000001414000014
#06112:00000000000000140000000014000000
#0611a:0000000000140000
#06119:23
#0641b:1300132300000000
#06416:23
#06917:0000001313000000
#06912:00000000000000130000000000000000
#06915:00000013
#0691b:0000000000000013
#07217:12121222
#04715:00000000000013000000000000230000
#0471b:0013
#04712:0023000000130000
#04718:00000023
#08319:0013000000000000
#08314:0000001300000000
#08316:0000000013000013
#0831b:2300000013130013
#08312:00130000
#08315:23
#08317:00230000
#0831f:21
#08417:0013230013000000
#08412:00000013000013001300130000002400
#08416:0000000000000024
#08410:0000000000000041
#0851a:0014140024001424
#08516:0000001400140024
#08512:0024
#08714:0013000000000000
#0871b:00130000
#08712:2300000013130013
#08717:2300000013000013
#08719:0000001300000000
#08716:00230000
#08816:0013130000000024
#08812:0000002400240000
#0881a:0000000024000024
#0881b:00230000
#09112:13231323
#09117:1313131313130013
#09216:0013131313130023
#09212:13
#0921b:00231323
#09415:0023000000130000
#09412:0000001300000000
#09418:0013
#0941b:0023000000002300
#09416:00000000000000000000000000230000
#0961b:0023130000000000
#09612:0000230000001414
#09617:0000000000001313
#09812:2300000023130013
#0981b:0013
#09819:0013001300130000
#09814:0023002300000000
#09816:00240000
#09912:13000000000000000000000000130000
#0991a:0013000000002313
#09914:00000000130000001400000000000013
#09918:0000001324000000
#09913:0023000000002313
#0991b:23000000000000000000000000000013
#09919:00000000230000000000000000130000
#09915:0000002300000000
#10018:00001300000000130000130000000000
#10015:00000013000013000000000000000000
#1001b:00000013
#10012:0000000000000013
#10112:00130000
#10117:00333333000000000000230000002300
#10116:00000023
#10212:1300130013001313
#10217:00130000
#1021b:0000002300230023
#10314:0013000000000000
#10319:0013000000000000
#10316:0000001400000000
#10312:0000142c
#1031a:0014
#03916:0014140000000000
#03917:0000000000000013
#03912:0000001400230000
#0391b:00002323
#02615:0000000000130013
#02618:00001313
#0261b:0023000000000000
#02612:00230000
#0271b:0013001300002300
#02712:00131300
#02717:0013
#02716:00000013
#03316:13130000
#0331b:13130013
#03319:0000001300000013
#03314:0000000000000013
#03312:0013
#03317:0013
#04316:0014000024000000
#0431a:00140024
#04312:0000001400002400
#06512:26000000000000000016000000000000000000000013000000000000000000000000000000000000000000000000000000000000000000000000000000000000
#06518:00260000
#0951b:2313001300230023
#09512:0000130000000023
#09516:0023
#0861b:0013000000000000
#08613:00130000
#08614:0000001300000000
#08619:0000001300000000
#08615:0023
#0861a:00230000
#07316:00130013
#07312:2313
#0731f:11
#0731b:23
#07319:00000023
#07516:00130013
#07512:2300000000130013
#07616:13130000
#07612:0013001300002300
#0761b:23
#07714:00002313
#07712:0000230000130013
#0771b:23000000003300000000000023000000
#07717:0000000000230023
#07716:23
#07812:0000130000232300
#07814:13
#0781b:2323
#07816:0000000000000023
#07817:00230000
#07912:00131313
#07915:0000001300130000
#07916:23
#07917:00000023
#07919:0000000000230023
#07914:0000000000000033
#05918:00000014
#05915:24
#05916:00242400
#0181b:1300001300000000
#01812:1313130000000013
#01817:00000013000000000000000000000000
#01816:00000000000000130000130000000000
#01814:00000013
#07412:13130000
#07416:0013001300002300
#07417:23
#09717:00000013000000000000000000000000
#0971b:0013130000000000
#0971a:0000001300140014
#09718:0013
#09714:00000014
#09712:0024
#08912:0014140024001424
#08916:0000001400140024
#0891a:0024
#09012:0013230000002300
#0901b:00230023
#09014:0000002300230000
#09019:0000002300230000
#09016:0024
#0461b:0000000000000023
#06212:24240024
#0621a:2424
#07115:2424
#07112:00240024
#07117:00240024
#0711a:0024
#08215:0023230000002300
#0821b:00000023000023000000000000002300
#08218:0023
#08212:0000000000230000
#09318:0023000000000000
#0311b:2300002323000000
#03116:2323
#03117:00000023000000000000000023000000
#03112:0023230000002300
#0801b:23002300000000000023000000000000
#08012:00232300
#08018:00000000000023000000000000000023
#08013:0000000000230000
#0801a:00000000000000000000002300000000
#08014:00000023
#08019:00000000000000000000000000230000
#08015:0000000000000023
#08112:2c
#0631a:2424
#06312:00240024
#0581a:24
#05817:00000024
#05814:2424
#05818:00240000
#05810:41
#06612:24
#06615:00000024
#06618:2424
#06614:00240000
#06717:24
#06716:00242400
#00358:13
#00856:00641400
#0085a:0014
#00956:00641400
#0095a:0014
#0105a:0014
#01056:00641400
#01159:00000013
#01154:00000013
#01256:00240024
#01252:6434
#0125a:4464
#01356:00240024
#01352:6434
#0135a:4464
#01552:0036
#0155b:13
#01652:53
#01654:0000000000000013
#01659:0000000000000013
#0165b:0000001300000000
#01452:2400000000000000000000240000000000000000002400000000000000000000
#01454:00000024000000002400000000240000
#01453:00000000000054000000000000000000005400000000000000000054000000000000000000540000000000000000005400000000000000000000540000000000
#0145a:44
#0175b:0000005300000000
#01752:0000005300000000
#01758:00000013
#01755:00000013
#01958:00000013
#01955:00000013
#02057:0000005300000000
#02052:5300001300000000
#0205b:0000000000130000
#02056:0000000000000013
#02352:5400000000130000
#0235b:0000001300000000
#02358:0000000000000013
#02157:0000006300000000
#0215b:0013000000230000
#02152:00000033
#02857:5353
#02856:00630000
#0285b:00130013
#02852:1313
#03056:5300000000130000
#0305b:5300000000530000
#03052:0023005300000000
#03057:0023001300000000
#03256:6363
#0325b:6363
#03252:0023000000230000
#03257:0023000000230000
#03652:13
#03656:0000000013000063
#0365b:0000000000130000
#03757:0013
#03752:0000000000130014
#03756:0000000000000064
#04057:0000000013000063
#04052:0000000000130000
#0405b:43
#04156:0000001400000014
#04152:0000000000140000
#0415a:0000000014000064
#0465b:0000000000000043
#04752:0033000000000000
#04755:00000000000000000000000000630000
#02652:00130000
#0265b:0013000000000000
#02655:0000000000000013
#04857:0000000013000053
#04852:0000000000130000
#0485b:13
#0495a:0000000000000054
#05056:00000023000000000000000000000000
#0505a:0044
#0515b:00005343
#05156:0000000000240000
#05152:00000033
#05256:1300000000130000
#05252:0000001300000013
#05352:0013
#05356:00130000
#05457:1300000000130000
#0545b:0000001300000013
#05557:00130000
#0555b:0013
#05555:00000013
#05659:6363
#05657:00000023
#0565b:00230000
#05654:53
#05759:53
#05754:53
#05756:0000000064000024
#0575a:00000064
#05752:0000000000240000
#06052:00230000
#06054:5353
#06056:00000023
#06059:63
#06154:63
#06159:63
#06156:0000000064000024
#06152:00000064
#0615a:0000000000240000
#06452:0000000000130000
#06457:00000013
#06456:53
#0645b:0000005300000000
#06957:0053
#07155:3434
#07157:00440044
#0835b:0000000000130000
#08356:0000000013000063
#08355:13
#08452:0000000000130064
#08457:0013
#08456:0000000000000014
#08757:1300000013000063
#08752:0000000000130000
#09157:0000000000130053
#09152:00130013
#08852:0000001400140000
#0885a:0000000014000054
#08856:0000000000000014
#0925b:00130013
#09256:0000000000130000
#09452:0000001300000000
#09458:0013
#09455:0013000000130000
#0945b:0013000000000000
#09456:00000000000000000000000000630000
#09954:00000000000000003400000000000023
#09958:0044
#09953:0000000000006363
#0995a:0000000000006363
#09952:00000000000000000000000000230000
#09959:00000000000000000000000000230000
#0995b:00000000000000000000000000000023
#10352:0000004c
#09352:0000000000000013
#09358:0000000000000013
#03856:0000000000000054
#0385a:0000000000000014
#02757:0063
#0275b:00000013
#02756:00000013
#0395b:00006353
#03957:0000000000000023
#03952:0000000000530000
#04256:0000000000000064
#04252:0000000000000014
#08552:0014
#08556:0000000000000064
#0855a:0000000000000014
#06552:00000000000000000066000000000000000000000023000000000000000000000000000000000000000000000000000000000000000000000000000000000000
#04356:0014
#04352:00000014
#0435a:00000014
#03157:00000013
#03156:0013
#03352:0063
#04457:0000000000130063
#04556:0000000000130000
#07356:00630063
#07352:6363
#0735b:0013
#07359:00000013
#07556:00530063
#07552:5300000000230023
#0755b:00000043
#07754:00006363
#0775b:0013
#07752:0000000000530053
#07852:00630000
#07854:63
#07856:0013
#07952:00636353
#07955:0000006300630000
#07956:63
#0795b:0013
#07656:53531300
#07652:0023002300003300
#0765b:00000043
#01852:0000000000000013
#07456:0063006300001300
#07452:63631300
#08056:13
#0805b:0013000000000000
#08052:00130000
#08058:0000001300000000
#0965b:00530000
#09652:0000630000000064
#09655:0013
#09658:0013
#1005a:13
#10053:13
#08655:00000013
#08658:00000013
#00758:00000013
#06356:14141414
#06256:00141414
#06252:34
#05852:00140014
#0585a:4414
#0595a:1414
#05952:00140014
#0665a:00140014
#06652:3414
#06752:1414
#0675a:00140000
#08152:3c
#09052:00000033
#0905b:00000043
#1025b:4300004300430043
#10252:0000000000000033
#00452:13
#0045b:13
#09757:00000023000000000000000000000000
#09752:0034
#09754:00000014
#07257:00000012
#0895a:0014
#08956:0000000000000054
#08952:0000000000000014
#09556:0013
#0955b:0000000000130000
#09552:13
#002360:12220000
#002381:00122200
#002350:00001323
#002381:00000013
#003381:23
#003351:0000132300000000
#003381:0000000013230000
#003351:0000000000001323
#008361:00140000
#0083a1:0024
#009361:00140000
#0093a1:0024
#010361:00140000
#0103a1:0024
#011341:00001323
#011390:00001323
#012320:1424
#012360:00540000
#0123a1:0014
#012361:00000054
#0133a1:24
#013320:1424
#013360:00540000
#0133a1:0014
#013361:00000054
#0143a1:24
#014320:1400000000000000000000540000000000000000005400000000000000000000
#014330:00000000000054000000000000000000005400000000000000000054000000000000000000540000000000000000005400000000000000000000540000000000
#014340:00000054000000005400000000540000
#015320:24
#016320:13
#016360:0000532300000000
#0173b0:0013003300000000
#017380:0000000000332300
#017321:0000133300000000
#017351:0000000000332300
#0183b1:0000000013000023
#0193b1:0013230000000000
#019320:0000132300000000
#019381:0000001323000000
#019350:0000000013230000
#019381:0000000000132300
#020321:13
#020361:00230000
#020371:0000001300000000
#0203b1:0000000000230000
#020360:0000000000130023
#0203b1:0000000000000013
#0213b1:0023000000000000
#021360:0013000000000000
#021320:0000002300000000
#021371:0000001300000000
#0213b1:0000000000530000
#021381:00000023
#023321:14
#023361:00240000
#0243b1:0000001323000000
#024320:0000000013230000
#025360:00133333
#025320:0000000000330023
#0253b1:00001333
#025371:0000000000330023
#027371:0013
#0273b1:00000023
#028371:13
#0283b1:00230000
#028360:00130000
#028320:0023
#028371:0013
#0283b1:00000023
#029381:0000132300000000
#029350:0000001323000000
#030360:13230000
#030320:0053000000000000
#0303b1:13230000
#030371:0053000000000000
#030321:0000001300000000
#030361:0000000000230000
#0303b0:0000000000130000
#030370:0000000000000023
#0323b0:1300002300000000
#032370:0053000000000000
#032361:1300002300000000
#032321:0053000000000000
#0323b1:0000000013000023
#032371:0000000000530000
#032360:0000000013000023
#032320:0000000000530000
#033320:0013
#033360:00000023
#035350:0000132300000000
#035380:0000000013230000
#035350:0000000000001323
#036360:0000000000000013
#037320:0023000000000000
#037360:0000000000000014
#0383a0:0024000000000000
#038360:0000000000000014
#039320:0024000000000000
#0393b0:0013
#039370:0000000000230000
#039321:0000000000130000
#039361:00000023
#0393b0:00000013
#039370:0000000000000053
#0403b0:23
#040370:0000000000000013
#0413b0:0023000000000000
#0413a0:0000000000000014
#042360:0024000000000000
#042360:0000000000000014
#0433a0:0024000000000000
#044370:0000000000000013
#0453b0:5323000000000000
#045360:0000000000000013
#046320:0023000000000000
#046371:0013000000000000
#0463b1:00230000
#046360:00130000
#046320:0000002300000000
#046371:0000001300000000
#0463b1:0023
#046360:0013
#046320:0000000000230000
#046371:0000000000130000
#0463b1:00000023
#046360:00000013
#046320:0000000000000023
#047350:00000000000000000000000000130000
#048320:23
#048370:0000000000000013
#0493b0:0023000000000000
#049370:0013
#0493b0:0000000000230000
#049321:0013
#049361:0000000000230000
#0493a1:0000000000000014
#050361:00000053000000000000000000000000
#0503a1:0024
#0513b1:00001323
#051361:0000000000540000
#056391:1353
#0563b1:00530000
#056371:00000053
#057391:53
#0573b1:00230000
#056340:13
#056360:00230000
#057340:13
#057360:00230000
#057360:00001424
#057320:0000000000540000
#0573a1:00000014
#057361:0000000000000054
#0583a1:24
#058340:14
#058320:0034240000000000
#058381:00140000
#0583a1:0000003424000000
#058340:0014
#058320:0000000000342400
#058371:00000014
#0583a1:0000000000000034
#0593a1:24
#059350:14
#059320:0034240000000000
#059361:00140000
#0593a1:0000003424000000
#059360:0014
#059320:0000000000342400
#060340:1353
#060320:00530000
#060360:00000053
#061340:53
#061320:00230000
#060391:13
#060371:00230000
#061391:13
#061371:00230000
#061361:00001424
#0613a1:0000000000540000
#061320:00000014
#061360:0000000000000054
#062320:24
#0623a1:14
#062361:0034240000000000
#062320:00140000
#062360:0000003424000000
#0623a1:0014
#062361:0000000000342400
#062320:00000014
#062360:0000000000000034
#063360:24
#0633a1:14
#063361:0034240000000000
#063320:00140000
#063360:0000003424000000
#0633a1:0014
#063361:0000000000342400
#064361:13
#064321:0000530000230000
#0643b0:0000001300000000
#064370:0000000000532300
#065320:16000000000000000056005300000000530000000053005600000000000000002600000000000000000000000000000000000000000000000000000000000000
#0653a1:00001424
#065361:0000000000540000
#065320:00000014
#065360:0000000000000054
#066320:24
#066381:14
#0663a1:0034240000000000
#066340:00140000
#066320:0000003424000000
#066381:0014
#0663a1:0000000000342400
#066350:00000014
#066320:0000000000000034
#067320:24
#067371:14
#0673a1:0034240000000000
#067360:00140000
#067320:0000003424000000
#067370:00000013
#0683b0:53230000
#068321:13
#068361:00230000
#0683b1:0013
#068371:00000033
#0693b1:33
#069371:00230000
#068360:0013
#068320:00000033
#069360:33
#069320:00230000
#069370:0013
#0693b0:00000023
#070350:13
#070320:0023000000000000
#0703b1:0013000000000000
#070381:00230000
#070350:00130000
#070320:0000002300000000
#0703b1:0000001300000000
#070381:0023
#070320:0013
#070350:0000000000230000
#070381:0000000000130000
#0703b1:00000023
#070320:00000013
#070350:0000000000000023
#070381:0000000000000013
#0713b1:23
#0733b1:1300005323000000
#073391:0053330000000000
#073320:1300005333000053
#073360:00005300330000000000005333000000
#074320:33332300
#074360:0053005300000000
#074371:1300330033000053
#0743b1:0053005300533300
#075371:3300000000530000
#0753b1:0053330033002300
#075320:1300005333530053
#075360:0053330000003300
#076360:33332300
#076320:0053005300000000
#0763b1:13333323
#076371:0053005300330000
#076391:00000000000000000033003300000000
#0773b1:13000000003333332300000000000000
#077371:0053330000000000
#077360:13
#077320:0023000000000000
#077320:00130000
#077360:0000002300000000
#077340:00001333
#077320:0000000000330033
#078340:33
#078320:0053330000000000
#078360:0000005323000000
#0783b1:13
#078371:0023000000000000
#078371:00130000
#0783b1:0000002300000000
#0783b1:0000000013000033
#078371:0000000000333300
#0793b1:3300003323000000
#079371:0033330000000000
#079360:13
#079320:00003353330000003300000033000000
#079350:0000003300330000
#079340:0000000000000033
#080360:23
#082350:0000132300000000
#082380:0000000013230000
#082350:0000000000001323
#083360:0000000000000013
#084320:0023000000000000
#084320:0000000000000014
#085360:00240000
#085360:0000000000000014
#086320:0023000000000000
#086350:00001323
#086381:00001323
#087371:0000000000000013
#0883b1:0023000000000000
#0883a1:0000000000000014
#089361:00240000
#089361:0000000000000014
#0903b1:0023000000000000
#091371:0000000000000013
#0923b1:0023000000000000
#092361:0000000000000013
#093321:0033003300330023
#093351:00333333
#093380:0013003300330023
#0933b0:00333333
#094360:00000000000000000000000000130000
#095320:23
#095320:0000000000000013
#096320:0023000000000000
#0963b1:0013330000000000
#096381:0000005323000000
#096320:00130000
#096350:0000005323000000
#096320:0000000000000014
#097370:00000053000000000000000000000000
#097320:0024
#098370:00000013
#0983b0:0000000000000023
#099330:0000000000001353
#099320:00000000000000000000000000530000
#099340:00000000000000000000000000000053
#100330:23
#0993a1:0000000000001353
#099391:00000000000000000000000000530000
#0993b1:00000000000000000000000000000053
#1003a1:23
#1003b1:0000132300000000
#100321:0000000013230000
#1013b1:13
#101371:00333333230000000000000000000000
#101371:0000001300000000
#1013b1:0023
#101340:0000000013230000
#101371:0000000000130000
#1013b1:00000023
#101360:00000013
#101320:0000000000000023
#101371:0000000000000013
#1023b1:23
