This file was generated by Ched 2.7.0.0.
#TITLE " "
#ARTIST ""
#DESIGNER ""
#DIFFICULTY 0
#PLAYLEVEL
#SONGID ""
#WAVE ""
#WAVEOFFSET 0
#JACKET ""
#REQUEST "ticks_per_beat 480"
#00002: 4
#BPM01: 175
#00008: 01
#TIL00: ""
#VOLUME: ""
#HISPEED 00
#MEASUREHS 00
#00016:1200001200000000
#00018:00120000
#0001a:00000022
#00116:1200001200000000
#00118:00120000
#0011a:0000000000222200
#00518:00130000
#00512:0013000000000000
#00515:00001313
#0051b:0000000000130013
#00418:0000000000000013
#00412:2300000000130000
#0041b:2300001300000000
#00415:00130000
#00410:41
#0201b:1300000000000013
#02015:00130000
#02012:0000000000130000
#02018:0000001300000000
#02115:0013000013001300
#02118:0000001300130013
#03315:1300130000130013
#0331b:13130000
#03318:00001313
#03312:0000001300000000
#03415:13
#03418:00130000
#0341b:13001313
#03412:0000130000130013
#0351b:1300002300230000
#03515:0023230023000000
#03512:00000023
#03518:00000023000000000000000000002300
#0371b:0000130000000013
#03715:0000001300000000
#03718:0013
#03712:0000000000130000
#03815:0013001300000000
#03812:0000000000130013
#03818:00002313
#0381b:00130000
#04415:0013001300130000
#04418:00231300
#0441b:13
#04410:41
#04812:0013000000130000
#04815:0000001300000000
#04818:00130000
#0481b:2313
#04912:00130000
#04918:0000001300000000
#0491b:0000000000000013
#05318:0013130000000000
#0531b:00001313
#05315:0000000000130013
#05312:0013130000000000
#05412:1300002300000023
#05418:0000131300000013
#0541b:2300000000130000
#05415:0000000000230000
#04718:0000001300000000
#04712:0013
#0471b:0023000000130000
#04715:0023000000002300
#09812:0000000013001313
#09818:0000000000130000
#0981b:2300232300000000
#09815:0023000000000000
#01515:0000000000130013
#01518:00000013
#0151b:0023
#01512:00230000
#01618:1300000000000013
#01612:00130000
#0161b:0000001300000000
#01615:0000000000130000
#01610:41
#0191b:0013000000000000
#01912:00130013
#01918:0000001300130000
#01915:0013
#02318:0013000000001300
#02315:00130000
#0231b:0000001300000000
#02312:2600000000130013
#02818:13
#02815:00130000
#0281b:0013
#02812:00000013
#02918:13131300
#02915:0013001300130013
#0291b:0000000000000013
#03918:0013001300000000
#03912:00130000
#03915:00002323
#0391b:0000000000230000
#04112:0000130026000013
#04118:0000002600260000
#04218:0013001300000000
#0421b:0000000000130013
#04215:00002313
#04212:00130000
#04315:0013001300000000
#04318:00130000
#0431b:0023
#04312:00000023
#05215:0000131300000013
#0521b:2300001300000013
#05218:0000000000130000
#05212:2300000000130000
#05515:0013130000000000
#05518:0000000000130000
#0551b:0023230000000000
#05512:00002323
#06115:00000013
#0611b:00000013
#06112:23
#06118:23
#06415:13000013
#0641b:2300000000130000
#07312:23132323
#0731b:0013001300130000
#0731f:11
#07418:23132323
#07415:0013001300130000
#07512:23132323
#07518:0013001300130000
#0761b:23132323
#07615:0013001300130000
#0771b:0013000000130000
#07718:0000001300000000
#07712:23232323
#07812:0013000000130000
#07815:0000001300000000
#0781b:23232323
#0911b:13131300
#09115:0013001300130000
#09212:0000130013000023
#09218:0000001300130000
#08818:00162600
#08812:0000002600260000
#0881b:0000000000000023
#0941b:0000001300000000
#09415:0013
#09418:0023000000130000
#09412:0023000000002300
#0961b:00000013
#09615:0033330000000000
#09618:0033330000000000
#0971b:00130013
#09712:0000001300000013
#09715:0000000000130000
#09718:0023
#1001b:00131300
#10015:0000001300000000
#10012:0000000000130013
#10018:00000013
#10118:0013000000000000
#10115:00131313
#1011b:1300001300130013
#1021b:00130000
#10212:23
#10215:0000002300000023
#10218:0000000000230000
#10315:0000001300000000
#10318:0013000013000000
#10312:00000025
#10319:00000025
#00618:00130000
#00612:0000002300000000
#0061b:0000000000230000
#00615:2300000000000023
#02618:00001313
#02615:0000000000130013
#0261b:0023000000000000
#02612:00230000
#0871b:2300001300130000
#08715:00231300
#08712:23
#06515:0000133300001300
#06518:13
#06512:13
#0651b:0000133300001300
#09515:0013001300000000
#09518:23130000
#09512:0000000000230023
#0951b:0000000023000023
#04512:00231300
#04518:0000001300130000
#04515:0000000000000013
#0451b:0000000000000013
#05015:0013001300000000
#0501b:00130000
#05018:00001313
#05012:0000000000130013
#0361b:0013000000130000
#03618:0000001300000000
#03615:00130000
#03612:2313
#03610:41
#07216:1212
#07218:00120022
#07015:13130000
#0701b:0013001300000000
#07012:00001313
#07018:0000000000130013
#08518:0000001300130000
#08515:00002313
#0851b:0000130000000023
#08612:0013000023000000
#08618:0000001300000000
#0861b:0013
#08615:00230000
#0841b:0000001300130000
#08415:00231300
#08412:0000000000000023
#08410:0000000000000041
#08312:0000001300130000
#08318:00231300
#08315:0013000000000000
#0831b:23
#0831f:21
#01818:1300000000130000
#01812:0013000000000013
#0181b:00131300
#01815:0000001300001300
#01715:0013000000000000
#01718:00130000
#04612:0033133300330023
#04615:0013
#04618:0033133300330023
#0461b:0013
#00712:0000000000130000
#00718:0023000000000000
#00715:00230000
#0071b:00002323
#0121b:0013
#01215:0013
#01218:23
#01212:23
#01318:13
#0131b:0013
#01312:13
#01315:0013
#01418:13
#01412:13
#02212:1313000026002600
#0221b:0000131300000000
#02218:0000000000260026
#0241b:0013000000000000
#02415:00130000
#02418:0000001300130013
#02412:00001313
#02512:0013000000000000
#02518:00130000
#02515:0000001300130013
#0251b:00002323
#03015:0000000000130000
#03012:0000000000000013
#03018:0000002300000000
#0301b:0000000000230000
#09315:0033133300330023
#09312:0013
#0931b:0000000000000023
#09918:24000000250000002600000000140000
#09919:0000000000002414
#0991a:00000000000000000000000000000014
#09912:00000000000000000000000000140000
#09913:0000002500002414
#09914:00002400000000000000000000000014
#00216:14343434343434343434343434343434
#00812:13
#00818:13
#05615:00000013
#05618:23
#0561b:00000023
#05712:00000013
#05718:00000013
#0571b:23
#02712:0000133300000000
#02715:0013
#0401b:23130000
#04015:0000001300000000
#04018:0013
#04012:2300000000130000
#06718:00000013
#06715:23
#0671b:00230000
#06712:0023
#0091b:13
#00915:13
#01012:13
#01018:13
#06818:0013
#06815:00000013
#08915:0000001300130000
#08918:00002313
#0891b:00130000
#08912:0013000000000023
#0901b:0013000000000000
#09014:00240000
#09013:0025
#09012:00000026
#09018:0000002400250000
#0311b:2300002300002300
#03115:0023230000000000
#03112:0023
#03118:00000023000000000000000000000000
#00312:2c
#05118:26262600
#05112:0026002600000000
#0581b:23
#05812:00230000
#05818:0023
#05815:00000023
#05810:41
#0591b:23
#05915:00230000
#05918:0023
#05912:00000023
#06212:23
#0621b:00230000
#06215:0023
#06218:00000023
#06312:23
#0631b:00230000
#06315:0023
#06318:00000023
#06612:2323
#06618:00230000
#0661b:00000023
#08118:26
#07112:2323
#0711b:00230023
#08218:0023230000002300
#0821b:0023
#08215:00000023000000000000230000000000
#08212:0000002300000023
#0111b:23
#01115:23
#06015:23
#0601b:23
#06018:00000023
#06012:00000023
#07912:23232323
#07918:0023000000230000
#0791b:0000002300000000
#0801b:23230000
#08012:0023002300000000
#08018:00000000000000002333333333333333
#03152:0013
#0315b:00000013
#00352:1c
#0375b:0000000000000013
#03752:0000000000130000
#03852:0000000000000013
#04152:0000000000000013
#04158:0000000000160000
#0425b:0000000000000013
#0435b:0013
#04352:00000013
#04455:0000000000130000
#04652:0000530000000013
#04655:0053
#04658:0000530000000013
#0465b:0053
#04755:0013000000000000
#0475b:0013000000000000
#08158:16
#09155:0000000000130000
#09458:0013000000000000
#09452:0013000000000000
#10059:14
#10053:14
#10352:00000015
#10359:00000015
#0155b:1313
#01555:13
#01952:00000013
#02058:0000001300000000
#02052:0000000000130000
#0205b:0000000000000013
#02155:0013000000000000
#0235b:0000001300000000
#02352:0000000000000013
#02858:13
#02855:00130000
#0285b:0013
#02852:00000013
#04852:0000000000130000
#06652:1313
#06658:00130000
#0665b:00000013
#08852:0000000000160000
#0885b:0000000000000013
#0875b:0000000000130000
#09258:0000000000130000
#09252:0000000000000053
#09958:00000000000000001600000000240000
#09959:0000000000005454
#0995a:00000000000000000000000000000024
#09952:00000000000000000000000000240000
#09953:0000000000005454
#09954:00000000000000000000000000000024
#09052:00000016
#04558:0000000000130000
#04555:0000000000000053
#0455b:0000000000000053
#0365b:0000000000130000
#07258:00000012
#07152:1313
#0715b:00130013
#08655:00000013
#08658:00000013
#0865b:0053
#08652:0053
#0845b:0000000000130000
#08452:0000000000000013
#08352:0000000000130000
#01755:00000013
#0125b:0053
#01258:53
#01255:0053
#01252:53
#01358:53
#0135b:0053
#01352:53
#01355:0053
#01458:53
#01452:53
#0265b:0013000000000000
#02652:00130000
#02655:0000000000000063
#0165b:0000001300000000
#03052:0000001300000000
#03058:0000001300000000
#03055:0000000000130000
#0305b:0000000000130000
#06455:63
#0645b:63
#06558:53
#06552:53
#0655b:00230000
#06555:00230000
#05158:00000016
#09355:0000630000000013
#09352:0063
#0935b:0000000000000013
#00256:24
#00858:53
#00852:53
#02752:00630013
#02755:0063
#04052:0000000000130000
#06755:13
#0675b:00130000
#06752:0013
#0095b:63
#00955:63
#01052:53
#01058:53
#0115b:53
#01155:53
#08058:0063
#07952:00000013
#0785b:00000013
#07752:00000013
#0765b:00000013
#07552:00000013
#07458:00000013
#07352:00000013
#0855b:0000000000000013
#08952:0000000000000013
#0955b:0000000013000053
#09552:0000000000130053
#10255:0000001300000013
#10258:0000000000130000
#10252:13
#09655:0013
#09658:0013
#002360:14343434343434343434343434343434
#003320:2c
#008380:13
#0083b0:0023
#008321:13
#008351:0023
#009351:13
#009321:0023
#0093b0:13
#009380:0023
#010380:13
#0103b0:0023
#010321:13
#010351:0023
#0113b1:13
#011381:0023
#011350:13
#011320:0023
#012380:13
#0123b0:0033
#013380:33
#0133b0:0033
#014380:33
#0153b0:23
#012321:13
#012351:0033
#013321:33
#013351:0033
#014321:33
#015351:23
#017321:0000001300000000
#017351:0000000000332300
#026351:0000000000000013
#027321:0033333300002300
#027351:0033
#0303b1:13
#030381:0000332300000000
#030350:13
#030320:0000332300000000
#0323b0:13
#032380:0000002300000000
#032351:13
#032321:0000002300000000
#032381:0013
#0323b1:0000000000000023
#032320:0013
#032350:0000000000000023
#036350:0000000000000013
#037320:0023000000000000
#040380:0000000000000013
#0413b0:0023000000000000
#0443b0:0000000000000013
#045380:0023000000000000
#045350:0000000000000013
#046320:0033333300333323
#046350:0033
#0453b1:0000000000000013
#046381:0033333300333323
#0463b1:0033
#048381:0000000000000013
#0493b1:0023000000000000
#049351:0013
#049321:00000023
#051381:00001626
#056381:13
#0563b1:0000003323000000
#056320:13
#056350:0000003323000000
#0573b0:13
#057380:00000000000033332300000000000000
#057351:13
#057321:00000000000033332300000000000000
#060351:13
#060321:0000003323000000
#0603b0:13
#060380:0000003323000000
#061320:13
#061350:00000000000033332300000000000000
#061381:13
#0613b1:00000000000033332300000000000000
#064351:13
#064321:0000332300000000
#0643b0:13
#064380:0000332300000000
#065380:1323
#0653b0:0000533300000000
#065321:1323
#065351:0000533300000000
#068351:13
#068321:00230000
#069321:13
#069351:00230000
#069380:13
#0693b0:00230000
#0693b0:0013
#069380:00000023
#069351:0013
#069321:00000023
#080381:00000000000000001333333333333333
#081381:26
#083381:0000000000000013
#0843b1:0023000000000000
#086321:0013
#086351:00000023
#0863b0:0013
#086380:00000023
#087350:0000000000000013
#088320:0023000000000000
#0913b0:0000000000000013
#092380:0023000000000000
#092320:0000000000000013
#093350:0033333300333323
#093320:0033
#0953b0:0000000000000013
#096380:0033330023000000
#095321:0000000000000013
#096351:0033330023000000
#096321:0000000000000013
#097351:0023000000000000
#099391:0000000000001454
#099381:00000000000000000000000000540000
#0993a1:00000000000000000000000000000054
#100391:24
#099330:0000000000001454
#099320:00000000000000000000000000540000
#099340:00000000000000000000000000000054
#100330:24
