This file was generated by Ched 2.7.0.0.
#TITLE " "
#ARTIST ""
#DESIGNER ""
#DIFFICULTY 0
#PLAYLEVEL
#SONGID ""
#WAVE ""
#WAVEOFFSET 0
#JACKET ""
#REQUEST "ticks_per_beat 480"
#00002: 4
#BPM01: 175
#00008: 01
#TIL00: ""
#VOLUME: ""
#HISPEED 00
#MEASUREHS 00
#0441a:1414
#04412:00140000
#04410:41
#0521a:2414
#05314:1414
#05418:1414
#05512:1414
#04514:1414
#04518:00140000
#07318:1414
#0731f:11
#07414:1414
#0751a:1414
#07612:1414
#07718:14140000
#07714:00001414
#0781a:14140000
#07812:00001414
#07918:14140000
#07914:00001414
#0161a:14
#01614:0014
#01610:41
#01812:14
#01818:0014
#02018:14
#02014:0014
#02214:14
#02218:0014
#0241a:14
#02414:0014
#0251a:14
#02514:0014
#02618:14
#02612:0014
#02718:14
#02712:0014
#02918:0014
#03114:0014
#0361a:2414
#03614:00140000
#03610:41
#03712:1414
#03718:00140000
#05812:14
#05818:0014
#05810:41
#05912:14
#05918:0014
#0621a:14
#06214:0014
#0631a:14
#06314:0014
#06612:1414
#06718:1414
#0701a:1414
#07114:1414
#00418:0014
#00412:14
#00410:41
#0061a:14
#00614:0014
#00812:1414
#0091a:1414
#01014:1414
#01118:1414
#0321a:14
#03218:0014
#03412:14
#03414:0014
#0381a:1414
#03814:00140014
#03918:14
#03912:00140000
#0391a:0014
#04012:1414
#04018:00140000
#0411a:1414
#04114:00140000
#04212:1414
#04218:00140014
#04314:14
#0431a:00140000
#04312:0014
#04814:14
#04818:0014
#04912:14
#0491a:0014
#05114:1414
#0511a:00140000
#05012:1414
#05018:00140014
#08018:1434343434343434
#0001a:14
#00112:14
#08418:0014
#08414:00140000
#0841a:14
#08410:0000000000000041
#09112:2414
#09118:00140000
#0921a:1414
#09214:00140000
#0981a:14140000
#09812:00001414
#08318:00140000
#08314:0014
#08312:24
#0831f:21
#09512:1414
#0951a:00140000
#09618:1414
#09614:00140000
#10018:0014
#10012:14
#09312:14
#0931a:00140000
#09314:0014
#09318:00000014
#09412:14
#09414:0014
#0941a:00140000
#09418:00000014
#10114:14
#1011a:0014
#08512:14
#08518:00140000
#08514:0014
#0851a:00000014
#08612:14
#08616:00140000
#0861a:0014
#08818:0014
#08814:00140000
#0881a:14
#08718:00140000
#08714:0014
#08712:24
#08912:14
#08918:00140000
#08914:0014
#0891a:00000014
#09012:14
#09016:00140000
#0901a:0014
#08118:26
#09918:24
#10314:00000024
#01212:0036
#01312:3636
#08158:16
#01555:16
#0325a:54
#03258:0024
#03452:64
#03454:0024
#0395a:0014
#04352:0014
#0475a:0014
#08058:24
#00358:14
#0865a:0014
#0905a:0014
#10354:00000014
#09958:00000014
#09752:0014
#002380:14343434
#003380:24
#005320:1424
#0073a0:1424
#012320:1636
#013320:3636
#014350:36
#015350:26
#017380:1424
#019340:1424
#0213a0:1424
#023320:1424
#0283a0:14
#028390:0034
#029380:24
#030320:14
#030330:0034
#031340:24
#0323a0:14
#032380:0034
#0333a0:24
#034320:14
#034340:0034
#035320:24
#046380:14
#046390:00340034
#0463a0:0034
#047380:34
#047390:00340000
#0473a0:0024
#0563a0:14
#056380:0034
#057380:34
#0573a0:0024
#060320:14
#060340:0034
#061340:34
#061320:0024
#0643a0:14
#064380:0034
#0653a0:34
#065380:0024
#068320:14
#068340:0034
#069320:34
#069340:0024
#080380:1434343434343434
#081380:26
#097320:1424
#099380:1434343434002400
#102320:14
#102340:0034
#103320:34
#103330:00340000
#103340:00003424
