This file was generated by Ched 2.7.0.0.
#TITLE ""
#ARTIST ""
#DESIGNER ""
#DIFFICULTY 0
#PLAYLEVEL
#SONGID ""
#WAVE ""
#WAVEOFFSET 0
#JACKET ""
#REQUEST "ticks_per_beat 480"
#00002: 4
#BPM01: 165
#00008: 01
#TIL00: ""
#VOLUME: ""
#HISPEED 00
#MEASUREHS 00
#0011a:14
#00214:14
#00318:14
#00412:14
#0051a:14
#00614:14
#00718:14
#01018:14
#01114:14
#0121a:0014000000000000000000000000000000000000000000000000000000000000
#01312:14
#01318:0014
#01310:41
#01414:14
#0141a:0014
#0171a:14
#01714:0014
#01818:14
#01812:0014
#02114:14
#0211a:0014
#02110:41
#02212:14
#02218:0014
#02518:14
#02512:0014
#0261a:14
#02614:0014
#03614:0014
#03712:0016
#03718:26
#03710:41
#03818:16
#03812:0016
#04318:16
#04312:0016
#04512:0016
#04618:16
#04612:0016
#05118:0016
#0541a:14
#05514:14
#05618:14
#05712:14
#0581a:14
#05914:14
#05910:41
#06018:14
#07018:0016
#07012:26
#0701f:21
#07112:16
#07118:0016
#07110:41
#07612:16
#07618:0016
#07818:0016
#07912:16
#07918:0016
#08412:0016
#08714:14
#08818:14
#0611f:11
#08913:24
#08919:24
#02912:0034
#03012:34
#0311a:0034
#0321a:34
#03314:0034
#03414:34
#0351a:0034
#04910:41
#008320:14
#009320:24
#015320:1434
#016320:24
#0193a0:1434
#0203a0:24
#023340:1434
#024340:24
#027380:1434
#028380:24
#029320:1434
#030320:34
#030340:0024
#0313a0:1434
#0323a0:34
#032380:0024
#033340:1434
#034340:34
#034320:0024
#035380:14
#0353a0:0034
#0363a0:24
#039380:1626
#040320:1626
#041380:163636260000
#042320:163636260000
#044380:16
#045380:26
#047380:1626
#048320:1626
#049380:163636260000
#050320:163636363636
#051320:26
#052320:16
#053320:26
#061320:14
#062320:24
#063380:14
#064380:24
#065340:14
#066340:24
#0673a0:14
#0683a0:3400343434343434
#0693a0:24
#072320:1626
#073380:1626
#074320:163636260000
#075380:163636260000
#077320:16
#078320:26
#080320:1626
#081380:1626
#082320:163636260000
#083380:163636363636
#084380:26
#085380:16
#086380:26
