This file was generated by Ched 2.7.0.0.
#TITLE ""
#ARTIST ""
#DESIGNER ""
#DIFFICULTY 0
#PLAYLEVEL
#SONGID ""
#WAVE ""
#WAVEOFFSET 0
#JACKET ""
#REQUEST "ticks_per_beat 480"
#00002: 4
#BPM01: 165
#00008: 01
#TIL00: ""
#VOLUME: ""
#HISPEED 00
#MEASUREHS 00
#0011b:1313
#00118:0000130000001313
#00115:00000013000013000000000000000013
#00112:0013
#00212:1313
#00215:00130013
#00218:00000013000013000000000000001300
#0021b:0013
#00312:13000000000000131300000000000000
#0031b:13130000
#00315:0000000000130013
#00318:00000013
#00412:13
#0041b:1313
#00418:0000000000130013
#00415:00000000000000000000000013000013
#00512:1313
#0051b:00130000
#00519:0000001300000000
#00517:0013
#00518:00000000000000000000000000000013
#00515:0000000000000013
#00516:00000013
#0061b:1300000013000013
#00612:00130000
#00614:0000001300000000
#00616:0000000013000013
#00617:00000013
#00717:13
#00718:00000013000000001300000000001300
#00715:00130013
#00712:1300001300000000
#0071b:0000000000130000
#0081b:1300000000000013
#00812:1300000000000013
#00815:0000001300000000
#00818:0000001300000000
#0091b:1313
#00912:130000333333000000000000
#00918:000000000000001300000000
#00919:00000013
#00916:000000000013
#00913:000000000000000000000013
#00915:000013
#00917:001300000000
#01114:0013
#01119:0013
#01116:23
#01217:0013000000000000000000000000000000000000000000000000000000000000
#0121b:0013
#01218:0000000000130013
#01215:00000013
#01212:0013000000000000000000000000000013000000000000000000000000000000
#01319:0000001300000000
#0131b:2313
#01317:0000130000000013
#01312:1313001300130013
#01310:41
#01417:1313
#01419:0000001300000000
#0141b:0000000000000013
#01412:0013001300130013
#0151a:0000000000130000
#01519:00000013
#01518:0000000000000013
#01512:0013001300130013
#0151b:13
#01517:00130000
#01617:13
#0161b:0013
#01615:0000000000130013
#01618:00000013
#01612:0013001313000000
#02016:13
#0201b:0013001300131300
#02012:0000001300000000
#0211c:0000120000000012
#02112:1312
#02117:13
#02116:00120000
#02118:0012
#02110:41
#0221c:1212
#0221a:0000001200000000
#02216:1212
#02214:0000001200000000
#02212:0000120000000012
#02218:0000000000000012
#02512:0000120000000012
#02514:0000001200000000
#0251c:1212
#02516:1212
#0291b:131300000000000000000000
#02915:001300000000
#02918:000000001313000013000000
#02912:0013
#03012:130000000013130000000000
#03015:001300000000
#03018:001300000000000000000000
#0301b:000000130000000013000000
#03112:13
#03115:001300000000000000000000
#03118:001300000000
#03116:000000000013000000000000
#03217:00000013
#0331b:13001313
#03315:001300000013001300000000
#03318:001313001300
#03312:00130013
#03412:1313
#03418:001300000013000000000000
#0341b:000000130000000013000000
#03415:001313000000
#0351b:13001313
#03515:001300000013000000000000
#03518:001313000000
#03512:00131300
#03516:00000013
#03616:00130000
#03612:0000001313000000
#03615:00000013
#03618:0000000000000013
#03617:0000000013130000
#0361b:0013130000000000
#03719:0000001300130000
#0371b:2313
#03712:23230023
#03716:0023
#03717:00230023
#03710:41
#03814:0000001300130000
#03816:0013
#0381b:2323
#03817:00000023
#03812:00230023
#03919:0000001300130013
#03912:0013
#03916:00000013
#0391b:00230023
#03917:0023
#0401b:00130000
#04019:0000001300000000
#04012:1313
#04018:000000000013
#04015:000000000000000000000013
#04016:00000013
#04017:2313
#04119:001300130000
#0411b:130013
#04115:000000000013
#04118:000000000000000000000013
#04112:230023
#04114:002300230000
#04116:002400
#04312:1300000000000013
#04315:00000000130000000000001300000000
#04318:0000130000131300
#04317:0000000000000013
#0431b:13
#04416:13
#04412:0000000000000000000000130000000000000000000000000000000013000000
#04417:0000000000000000000000130000000000000000000000000000000013000000
#0441b:13
#04815:000000000013
#04818:000000000000000000000013
#04812:00130000
#04814:0000001300000000
#0481b:1313
#04817:00000013
#04816:2313
#04918:001300002300000023001300
#04912:001313
#04915:000023000000130000000013
#0491b:2323
#04910:41
#05112:13131300
#05118:00000000130000000000001300001300
#05115:0013001300001300
#0511b:2313
#0521b:1300000000000013
#05212:1300000000000013
#05215:0000001300000000
#05218:0000001300000000
#0531b:1300000000000000000000130000000000001300000000000000000000000000
#05312:1300000000000000000000130000000013000000000000001300000000000000
#05316:0014000000000000
#05315:0000000000130000
#05318:00000000000000000000001300000000
#05412:13000013
#05417:0000001300001300
#05416:0013
#0541b:1313
#05415:001300000000
#05515:00000013000000001300000000000000
#05512:0000130000001313
#05518:0013001300130013
#05718:000013000013001300001300
#05715:001300001300000013000013
#05712:00131300
#0571b:23000013
#05912:1313
#05918:000013001300001300130013
#05915:001300130013000013001300
#0591b:2313
#05910:41
#0611c:1212
#06118:0000120000000012
#0611a:0000001200000000
#06112:12
#06116:0012
#0611f:11
#0641a:0012
#06416:00000012
#06418:0000000000120000
#06512:1212
#06516:0000120000000012
#06514:0000001200000000
#0651c:12
#06518:0012
#06616:1212
#06612:0000120000000012
#06614:0000001200000000
#0661c:12
#06618:0012
#07019:0000001300000013
#07014:0000000000130000
#0701b:23
#07017:00230000
#07012:00000023
#0701f:21
#07219:0000001300130013
#07216:1313
#07214:0013000000000000
#0721b:1323
#07212:00130013
#07217:00230023
#07317:00131300
#0731b:2300001300000000
#07318:000000000013
#07315:000000000000000000000013
#07316:13
#07312:0013
#0851c:000000000012
#08516:000000000000000000000012
#0851b:13
#08512:13
#0861a:12
#08614:001200000000000000000000
#08618:000012000000000000000012
#08616:000012000012
#08612:0012
#0861c:001200
#00015:0000000000000013
#00018:00000000000000000000000000000013
#01714:0000001300000000
#01712:2313
#01716:0000130000000013
#0171b:1313001300130013
#01816:1300000013000013
#01814:0000001300000000
#0181b:0013001300130013
#01912:00130000
#01916:1313
#01914:0000000000000013
#0191b:0013001300130013
#02312:1212
#02318:12120000
#02316:0012000000001200
#0231c:0000001200001200
#0231a:0000000000000012
#02418:1200001200001200
#02412:1200001200000000
#0241c:00120000
#02414:0012
#02416:0000000000120000
#0241a:0000000000000012
#02612:1212
#02614:0000001200000000
#02618:1212
#0261a:0000001200000000
#0261c:0000120000000012
#02616:0000000000000012
#0271c:1212
#02716:12120000
#02718:0012000000001200
#02712:0000001200001200
#0271a:0000000000000012
#02816:12
#02812:0000001200000000
#0281c:12
#02818:0000001200000000
#04214:001300130013
#04212:130013
#04219:002300230013
#0421b:230023
#04216:002400
#04514:0000001300130000
#04512:0013
#0451b:23230023
#04517:0023
#04516:23230023
#04619:0000001300130000
#04617:0013
#04612:2323
#04616:00000023
#0461b:00230023
#04714:0000001300130013
#0471b:0013
#04717:00000013
#04712:00230023
#04716:0023
#05015:001300002300000023000000
#0501b:001313
#05018:002300130023
#05012:230000230013
#05615:13
#05612:0013001300130013
#0561b:13
#05617:0000001300000000
#06018:001300000013
#06015:001313
#0601b:2323
#06012:2323
#06212:12
#06216:0012
#06218:1212
#0621c:0000120000000012
#0621a:0000001200000000
#06312:12
#06316:0012
#0631a:0000000000000012
#0671a:0012
#06712:22
#06714:0022
#06818:1200121212121212
#06816:2200222222222222
#0691a:0012121200120012
#06914:00001200120012000000001200000012
#06918:12001212
#06916:22000000000000000012000000120000
#0711b:13
#07119:0013000000130000
#07114:0000001300000013
#07116:13
#07112:00230000
#07117:00000023
#07110:41
#07412:130000000000001300000000
#07415:001300000000000000001300
#07414:00130000
#07413:000000000013000000000000
#07418:000000000000230000000013
#07419:002300
#0741a:002300000000
#0741b:23
#07417:000023
#0751b:130000000000001300001300
#07518:001300000000000000000000
#07519:00130000
#0751a:000000000013000000000000
#07512:230000000013
#07515:0023
#07514:002300
#07513:002300000000
#07516:000023
#0761b:13
#07618:00000000130000000000130000130013
#07615:0000130000001313
#07612:13
#07717:13
#0771b:00000033000013000000330000001300
#07716:00000033000013000000330000001300
#07712:13
#07817:13
#07814:0000001300000013
#07819:0000000000130000
#07816:00230000
#0781b:00000023
#07812:23
#08014:0000001300130013
#08017:1313
#08019:0013000000000000
#08012:1323
#0801b:00130013
#08016:00230023
#08116:00131300
#08112:2300001300000000
#08117:13
#0811b:0013
#08115:000000000013
#08118:000000000000000000000013
#07912:13
#07914:0013000000130000
#07919:0000001300000013
#07917:13
#0791b:00230000
#07916:00000023
#0821b:130000000013000000000000
#08217:001300000000000000000000
#08219:000000130000001300000000
#08218:000000000013
#08215:000000000000000000000013
#08214:002300230000
#08216:002300
#08212:230023
#08312:130000000013000000000000
#08316:001300000000000000000000
#08314:000000130000001300000000
#08315:000000000013
#08319:002300230000
#08317:002300
#0831b:230023
#08318:000000000023
#08412:1313
#08415:00000000130000000000001300001300
#0841b:23131300
#08418:0013001300001300
#08816:12002212
#08812:00120000
#08818:00000000120000000000001200001200
#0881c:2212
#0871c:000000000012
#05815:000013000013001300001300
#05818:001300001300000013000013
#0581b:00131300
#05812:23000013
#01012:0013
#01015:000000000000001300000000
#01014:00000013
#01017:230000000013
#0101a:000000000000000000000013
#01018:000013
#01016:001300000000
#0101b:000000333333000000000000
#08914:22
#0891a:22
#00152:0053
#0025b:0063
#00352:53
#0035b:00530000
#00452:53
#0045b:63
#00552:53
#00557:0053
#0065b:63
#00656:0053
#00758:0053
#00755:00530000
#00752:0000002300000000
#0075b:0000000000230000
#0085b:53
#00852:53
#00858:0000002300000000
#00855:0000002300000000
#00952:13
#0095b:13
#01457:53
#01657:53
#01856:63
#01956:5353
#01952:00530000
#02056:53
#02052:0000002300000000
#0155b:53
#01557:00530000
#02152:0012
#02158:0012
#0225c:5212
#02256:0012
#02352:52
#02358:00520000
#02356:0022000000000000
#0235c:0000002200000000
#02452:52
#02652:6212
#02658:0012
#0275c:62
#02758:0022000000000000
#02756:00620000
#02752:0000002200000000
#02556:0012
#0255c:0012
#02856:52
#02852:0000002200000000
#0285c:52
#02858:0000002200000000
#02952:0053
#02958:000053
#0305b:000000530000000013000000
#03052:0053
#03452:0063
#03456:000013
#03556:00000063
#03552:0063
#0355b:00000063
#03652:1313
#0365b:00130000
#03752:13
#0375b:13
#03757:00000013
#03852:00000013
#04052:53
#04057:0053
#04352:53
#04355:00530000
#0435b:63
#04358:00630000
#04456:53
#04452:0000000000000000000000230000000000000000000000000000000000000000
#0445b:53
#04457:0000000000000000000000230000000000000000000000000000000000000000
#0485b:63
#04856:0063
#04556:13000013
#0455b:13
#0465b:00000013
#05255:0000002300000000
#05252:53
#0525b:63
#05258:0000002300000000
#05352:13000013
#0535b:13
#0545b:5353
#05455:005300000000
#05452:00000053
#05457:00000053
#0565b:53
#05657:0000005300000000
#06152:52
#06156:0052
#0615c:0012
#06252:52
#06256:0052
#06258:0012
#06352:52
#06356:0052
#06552:0012
#0655c:52
#06558:0052
#0665c:52
#06658:0052
#06656:0012
#0705b:13
#07052:00000013
#07157:00000013
#07356:53
#07357:0053
#07352:0053
#0765b:63
#07658:00630000
#07652:53
#07655:00530000
#07757:63
#0775b:0000002300000000
#07752:63
#07756:0000002300000000
#08156:0063
#08157:63
#0815b:0063
#0785b:00000013
#07852:13
#07956:00000013
#0855b:63
#08552:53
#08658:005200120000
#0865c:005200
#08652:0012
#08856:12
#0575b:13
#0595b:13
#06052:13
#0605b:0013
#05852:13
#03257:00000013
#03252:00000013
#0515b:13
#0135b:13
#01752:13
#001320:0013
#001350:00000023
#0023b0:0013
#002380:00000023
#003320:13
#003360:00230000
#0033b1:00130000
#003371:0023
#004321:13
#004351:00230000
#0043b0:13
#004380:00230000
#005320:13
#005360:00230000
#005370:0013
#0053b0:00000023
#0063b0:13
#006370:00230000
#006360:0013
#006320:00000023
#007350:00132300
#007320:0000005300000000
#007381:00001323
#0073b1:0000000000530000
#008321:13000023
#008351:0000005300000000
#0083b0:13000023
#008380:0000005300000000
#009320:000013333333000000000000
#009360:0023
#0103b0:000013333333000000000000
#010370:0023
#014370:13
#0143b0:00230000
#0153b0:1323
#015370:00330000
#016370:13
#0163b0:0000002300000000
#018360:13
#018320:00230000
#019360:1333
#019320:00330023
#020360:13000023
#020320:0000005300000000
#0223c0:12
#022380:00220000
#023320:12220000
#023360:0052000000000000
#023381:00122200
#0233c1:0000005200000000
#024321:12
#024361:00220000
#026321:12
#026361:00220000
#0273c1:12220000
#027381:0052000000000000
#027360:00122200
#027320:0000005200000000
#028360:12000022
#028320:0000005200000000
#0283c1:12000022
#028381:0000005200000000
#029321:0013
#029351:000023
#029380:000013
#0303b0:23
#0303b0:00130000
#030370:000000000023000000000000
#030320:0013
#030360:000023
#0313b0:00132300
#031361:00001323
#031390:00000013
#032390:23
#032341:13230000
#032370:00132300
#032321:00001323
#034321:0013
#034361:000023
#035321:0013
#035361:00000033
#036321:23
#0353b0:00000013
#036370:23
#037320:00000013
#038360:23
#0383b1:13
#038371:00230000
#038371:00000013
#0393b1:23
#039360:13
#039320:00230000
#040320:13
#040360:00230000
#040370:0013
#0403b0:00000023
#043320:1323
#043350:00330000
#0433b1:1323
#043381:00330000
#044361:13000000000000000000002300000000
#044321:0000000000000000000000530000000000000000000000000000000000000000
#0443b0:13000000000000000000002300000000
#044370:0000000000000000000000530000000000000000000000000000000000000000
#0453b0:00000013
#046370:23
#046321:13
#046361:00230000
#046361:00000013
#047321:23
#047370:13
#0473b0:00230000
#0483b0:13
#048370:00230000
#048360:0013
#048320:00000023
#052320:13000023
#052350:0000005300000000
#0523b1:13000023
#052381:0000005300000000
#0543b1:13
#054381:002300000000
#054350:001300000000
#054320:0000002300000000
#0543b0:0013
#054370:00000033
#0553b0:23
#054321:00000013
#055361:23
#0563b1:13000023
#056371:0000003300000000
#061321:12
#061361:0032
#062321:32
#062361:0032
#063321:32
#063361:0032
#064321:32220000
#0633c0:1232
#063380:00320022
#0643c0:12220000
#0653c0:12
#065380:0032
#0663c0:32
#066380:0032
#0673c0:22
#070320:00130000
#070360:0023
#0703b1:0013
#070371:00000023
#071371:00130000
#0713b1:0023
#071360:0013
#071320:00000023
#073360:13
#073320:00230000
#073320:0013
#073360:00000023
#073371:0013
#0733b1:00000023
#0763b1:1323
#076381:00330000
#076320:1323
#076350:00330000
#077370:13000023
#0773b0:00000033000033000000330000000000
#077321:13000023
#077361:00000033000033000000330000000000
#0783b1:00130000
#078371:0023
#078320:0013
#078360:00000023
#079360:00130000
#079320:0023
#079371:0013
#0793b1:00000023
#081371:13
#0813b1:00230000
#0813b1:0013
#081371:00000023
#081360:0013
#081320:00000023
#0853b0:13
#085380:0023
#085321:13
#085351:0023
#086381:001200220000
#0863c1:003200
#087321:122200000000
#087380:001222000000
#087341:000012220000
#0873a0:000000122200
#087361:000000001222
