This file was generated by Ched 2.7.0.0.
#TITLE ""
#ARTIST ""
#DESIGNER ""
#DIFFICULTY 0
#PLAYLEVEL
#SONGID ""
#WAVE ""
#WAVEOFFSET 0
#JACKET ""
#REQUEST "ticks_per_beat 480"
#00002: 4
#BPM01: 165
#00008: 01
#TIL00: ""
#VOLUME: ""
#HISPEED 00
#MEASUREHS 00
#0011b:13
#00115:00130000
#00118:0000001300000013
#00112:0013
#00212:13
#00218:00130000
#00215:0000001300000013
#0021b:0013
#00315:0000000000130000
#00318:00130013
#00312:0000000000000013
#0031b:13
#00415:00001313
#00418:0000000000130000
#0041b:13
#00518:1300000013000013
#00515:0000001300000000
#00618:0013000000000013
#0061b:0000001300000000
#00615:1313
#00612:00130000
#0071b:0000130000000013
#00718:0013
#00715:1313
#00712:0000130000000013
#0081b:13
#00812:13
#00815:0000000000000013
#0091b:13
#00912:000000333333003333333333
#01116:0014
#0121b:0013
#01215:0000000000130000
#01218:00000013
#01212:0014000000000000000000000000000000000000000000000000000013000000
#01315:0000001300000013
#01318:0013
#01312:00130000
#0131b:23
#01310:41
#01418:1313
#01415:0000001300000013
#01512:0000000000130000
#0151b:00130013
#01515:0000000000000013
#01518:13
#01618:1300000000130000
#0161b:00000013000000000000000000001300
#01612:0013
#01615:00000013
#02015:13
#02012:0000001300000000
#02118:0000130000000013
#0211b:0013
#02115:0013
#02110:41
#02215:1313
#0221b:0000001300000013
#03014:001400000000
#03018:001400000000000000000000
#03012:14
#0301a:00140000
#03017:0014
#03112:14
#03118:001400000000000000000000
#03114:001400000000
#03612:0013
#03618:00000013
#03615:0000130000000013
#03918:0000001300000013
#0391b:1300000000130000
#03912:13230000
#03915:00002323
#0401b:00130000
#04018:0000001300000000
#04015:0013
#04012:23
#04318:0000000000130000
#04315:00000013
#04312:0000000000000013
#0431a:14
#04316:00140000
#05315:13
#05312:00000000000000001333333300000000
#05515:00130013
#05512:0013
#05518:0000000013000013
#0551b:00130000
#0611a:12
#06114:00120000
#06116:0012
#06118:0000001200000012
#0611f:11
#0641a:0012
#06418:00000012
#06416:0000000000120000
#06618:0000001200000013
#0661a:12
#06614:00120000
#06616:0012
#07018:0000001300000000
#0701b:0000000000130000
#0701a:24
#07012:00230023
#07015:0023
#0701f:21
#07218:0000001300130000
#07212:1300000000000013
#0721b:1323
#07215:00230023
#07315:0000001300000000
#0731b:0013
#07318:13
#02418:13
#02412:0000001300000000
#02417:0013
#02414:0000000000130000
#02419:00000013
#02416:0000000000000013
#04116:002400240014
#0411a:240024
#04112:002400
#0441b:13
#04415:0000000000000013
#05212:13
#0521b:13
#05218:0000000000000013
#05615:13
#05612:0000001300000000
#0561b:13
#05618:0000001300000000
#06214:1200000000000012
#0621a:00120000
#06216:0000001200000000
#06218:0012
#0631a:0000000000000012
#06314:00000012
#0711b:1300001300000000
#07112:1323
#07118:0000000000130000
#07115:00230023
#07110:41
#07416:000024000014
#07418:0024
#07414:002400000000
#07412:24
#0741a:000024
#08615:001300000000000000001300
#08618:130013000000000000000013
#0861b:001300
#08815:13002313
#08812:00130000
#08818:0000130000000013
#0881b:0013
#01718:0000001300000013
#01715:0013
#0171b:00130000
#01712:23
#01815:1313
#01818:0000001300000013
#01915:1313
#01912:00130000
#01918:0000000000000013
#02315:1300000000000013
#02312:00130000
#0231b:00000013
#0251b:1313
#02515:0000001300000013
#02618:1313
#02612:0000001300000013
#02718:1300000000000013
#0271b:00130000
#02715:00000013
#0281b:13
#02815:13
#02818:0000001300000000
#02812:0000001300000000
#03412:003333000000130000000000
#03415:000000003333000000000000
#03518:003333003333130000000000
#0351b:00000013
#03719:0000000000130000
#03717:0000001300000000
#0371a:24
#03712:00230000
#03714:0023
#03716:00000023
#03710:41
#0381b:13
#03816:13230000
#03817:0000000000130000
#03819:0000001300000000
#03814:0023
#03812:00000023
#04216:002400240014
#04212:240024
#0421a:002400
#04715:0000001300000013
#04712:1300000000130000
#0471b:13230000
#04718:00002323
#04812:00130000
#04815:0000001300000000
#04818:0013
#0481b:23
#04514:0000000000130000
#04516:0000001300000000
#04512:23
#0451b:23230000
#04519:0023
#04517:00000023
#04612:13
#04617:13230000
#04616:0000000000130000
#04614:0000001300000000
#04619:0023
#0461b:00000023
#04916:002400240014
#04912:240024
#0491a:002400
#04910:41
#05016:002400240014
#0501a:240024
#05012:002400
#0511b:00130000
#05115:0000000013000013
#05118:00000013
#05112:24
#05716:001400001400
#05712:000014000014
#0571a:2414
#05812:001400001400
#05816:000014000014
#0581a:2414
#05916:001400001400
#0591a:241400
#05912:000000140014
#05910:41
#06016:001400001400
#0601a:241400
#06012:000000240014
#06514:12
#0651a:00120000
#06518:0012
#06516:0000001200000012
#06718:00130013
#06715:2300000000000013
#0671b:0023
#06712:0023
#06818:0000000000000013
#06812:13
#0681b:13
#06915:1300000000000013
#0691b:0000131313000000
#06912:0000131313000000
#07615:0000000000130000
#07618:00000013
#0761b:0000000000000013
#07612:14
#07616:00140000
#07712:13
#07718:0000000000000013
#07815:0000001300000000
#07812:2300000000130000
#0781b:23230023
#07818:0023
#08015:0000001300130000
#0801b:1300000000000013
#08012:1323
#08018:00230023
#08118:0000001300000000
#08112:0013
#08115:13
#07912:1300001300000000
#0791b:1323
#07915:0000000000130000
#07918:00230023
#08216:000024000014
#08214:0024
#08218:002400000000
#0821a:24
#08212:000024
#07516:000024000014
#07514:0024
#07518:002400000000
#0751a:24
#07512:000024
#0851b:13
#08512:13
#08518:000000000013
#08515:000000000000000000000013
#08415:00130013
#08418:0000000013000013
#0841b:23
#08412:23
#08912:23
#0891b:23
#08318:0024
#08316:000024000024
#08314:002400000000
#08312:24
#0831a:000024
#0101b:000000333333003333333333
#0291b:003300000000000000000000
#02915:000000000033000000000000
#0331b:003333000000003333000000
#03318:000000003333000000000000
#00152:0053
#0025b:0063
#0045b:63
#00558:5353
#00655:0053
#00758:0053
#00755:0053
#0085b:53
#00852:53
#0095b:13
#01458:53
#01658:53
#0165b:00000023000000000000000000000000
#02055:53
#02052:0000002300000000
#01558:53
#0155b:00530000
#02255:5313
#02458:53
#03655:00130000
#03652:0013
#03658:13
#0375a:14
#03756:00000013
#04055:0053
#0435a:64
#04356:00640000
#0445b:53
#05252:53
#0525b:63
#05355:13000013
#05352:0053
#05655:53
#05652:0000005300000000
#0565b:53
#05658:0000005300000000
#06156:0012
#06258:0012
#0705a:14
#07052:00000013
#0735b:0053
#07358:53
#08658:005300130000
#0865b:005300
#08855:13
#0575a:14
#0595a:14
#0585a:14
#03254:00000014
#04552:13
#04557:00000013
#0455b:13
#05152:14
#0135b:13
#0035b:53
#00358:00530000
#01752:13
#01855:63
#01955:6353
#01952:00630000
#02155:0013
#0215b:0013
#02355:53
#02352:00530000
#0255b:5313
#02658:6313
#02758:63
#0275b:00630000
#0285b:53
#02855:53
#02858:0000002300000000
#02852:0000002300000000
#0305a:000000540000000014000000
#03057:0054
#03452:0053
#03455:000013
#03558:0053
#0355b:00000053
#03852:00000013
#04858:0063
#0465b:00000013
#0605a:14
#06052:0014
#06558:0012
#06656:0012
#06852:53
#0685b:63
#07155:00000013
#07652:54
#07656:00540000
#07752:63
#0785b:13000013
#07852:13
#08152:0063
#08155:63
#07958:00000013
#0855b:63
#08552:53
#001320:0013
#001350:00000023
#0023b0:0013
#002380:00000023
#0033b0:1323
#003380:00330000
#0043b0:13
#004380:00230000
#005380:13
#0053b0:00230000
#005380:0013
#0053b0:00000023
#006350:0013
#006320:00000023
#007380:0013
#0073b0:00000023
#007351:0013
#007321:00000023
#008321:13
#008351:00000023
#0083b0:13
#008380:00000023
#009320:000013333333003333333333
#009360:0033
#010320:23
#0103b0:000013333333003333333333
#010370:0033
#0113b0:23
#014380:13
#0143b0:00230000
#015380:1323
#0153b0:00330000
#016380:1300002300000000
#0163b0:00000053000000000000000000000000
#018350:13
#018320:00230000
#019350:1333
#019320:00330023
#020350:13000023
#020320:0000005300000000
#022350:13
#022320:00230000
#023350:1323
#023320:00330000
#024380:13
#0243b0:00230000
#0253b0:13
#025380:00230000
#026380:13
#0263b0:00230000
#027380:1323
#0273b0:00330000
#0283b0:13000023
#028380:0000005300000000
#028351:13000023
#028321:0000005300000000
#0293b1:133300000000000000000000
#029381:002300000000
#029351:000000001333000000000000
#029321:000000332300
#0303a1:000000140000000024000000
#030371:000000000034340000000000
#0313a1:000000140034240000000000
#031340:00001424
#031381:00000014
#032381:24
#032320:14240000
#032381:00142400
#032340:00001424
#0333b0:133333000000333333000000
#033380:000000333333000000230000
#034320:133333000000330000000000
#034350:000000333333000023000000
#035380:133333003333330000000000
#0353b0:00330033
#036380:23
#040350:0013
#040320:00000023
#0433a0:1424
#043360:00340000
#0443b0:13
#044380:00000000000000000000002300000000
#048380:0013
#0483b0:00000023
#052320:13
#052350:00000023
#0523b1:13
#052381:00000023
#053381:0000000013000000000000230000000000000000000000000000000000000000
#053321:00000000000000001333333300000000
#053351:00000023
#054381:13000023000000000000000000000000
#054350:00000013000023000000000000000000
#0543b0:0013
#054380:00000033
#055380:23
#054321:00000013
#055321:23
#056351:13000023
#056321:0000003300000000
#0563b0:13000023
#056380:0000003300000000
#063380:1222
#0633b0:00320000
#064360:12220000
#068320:13
#068350:00000023
#0683b1:13
#068381:00000023
#073381:13
#0733b1:00230000
#0733b1:0013
#073381:00000023
#076321:1424
#076361:00340000
#077321:13
#077351:00000023
#081351:13
#081321:00230000
#081321:0013
#081351:00000023
#0853b1:13
#085381:0023
#085320:13
#085350:0023
#086380:001300230000
#0863b0:003300
#087350:132300
#087320:003300000000
#087380:000000130023
#0873b0:000033
