This file was generated by Ched 2.7.0.0.
#TITLE ""
#ARTIST ""
#DESIGNER ""
#DIFFICULTY 0
#PLAYLEVEL
#SONGID ""
#WAVE ""
#WAVEOFFSET 0
#JACKET ""
#REQUEST "ticks_per_beat 480"
#00002: 4
#BPM01: 165
#00008: 01
#TIL00: ""
#VOLUME: ""
#HISPEED 00
#MEASUREHS 00
#0011c:1212
#00115:00001300130000000000130000000012
#00118:00000013000013000000001300001200
#00112:1212
#0011b:00000013
#00314:0012000000000013
#0031c:12
#00312:12000000000000000033333300000000
#00319:0000000000000013
#0031b:00000000003333330000000013000000
#00316:00140000
#0031a:0012000000000000
#00417:13
#00412:1312
#00414:0000000000120000
#00416:0013001300001200
#00415:00000000000000000000000000000013
#00418:0000000012000013
#0041b:0013001300000000
#0041a:0000000000120000
#0041c:00000012
#0051b:13
#00512:13000013130000001300000000000000
#00519:0000001300000000
#00517:0013000013000000
#00516:00000000000000000000001313000000
#00514:0000001300000000
#00518:00000000000000000000000000000013
#00515:0000000000000013
#00715:13130000
#00718:00000013130000001300000000000000
#00719:0000000000000013
#00712:0013
#0071b:0000000000130000
#00714:0000000000000013
#0081b:13
#00818:0000000000000013
#00812:13
#00819:0000001300000000
#00814:0000001300000000
#00815:0000000000000013
#0091b:1312
#00912:13
#00913:001200000000
#00915:00120000
#00917:000012000012
#00919:000000000012000012000000
#0091a:000000000000001200000000
#00918:00000012
#00916:000000000000000000000012
#01118:00120000000000001200000000000000
#0111c:0012
#01114:22000000000000000012000000000000
#0111a:22
#01216:0012000000000000000000000000000000000000000000000000000000000000
#0121b:0013
#01219:0000000000130013
#01217:00000013
#01212:0012000000000000000000000000000012000000000000001200000000000000
#01214:0000000000120012
#01319:0000001300000000
#0131b:2300000013000013
#01312:1212001200120012
#01317:00130000
#01310:41
#01417:1313
#0141b:0013001300000000
#01419:0000000000000013
#01412:0012001200120012
#01518:0000000000130000
#01519:0013001300001300
#0151a:0000000000000013
#01512:0012001200120012
#01517:13
#0151b:00130000
#0161b:13
#01612:0012001213000000
#01617:00000013000000000000000000000000
#0161c:00001212
#0161a:0000000000120012
#01614:0000000000130013
#01616:00000013
#02012:13000000000000000000001300130000
#02017:00000000001300000000130013000000
#0201c:0012001200000000
#02117:000000000000000000000000000000000000120000323232000000000000120000000000120000000000120000000000
#02112:00121200
#0211c:0000000000000012
#02116:13
#0211b:13
#02110:41
#02217:1212000012121212
#02219:0000001200000000
#0221c:0012000012000000
#02212:1200120000000012
#02215:0000001200000000
#02515:0000001200000000
#0251c:1212
#02516:12
#02512:0000000000000012
#02517:0000120012121212
#02519:0000001200000000
#02912:120012
#02914:001300000000001300000000
#02917:001200120000
#0291c:001200
#02919:000000130013000000000000
#03017:000000131300
#0301b:130000000013000000000000
#03012:00130000
#03018:001300000000000000000000
#03015:001300000000
#0311b:130000000000000000001300000000120000000000000000
#03118:001300000000000000000000
#03115:001300000000
#03112:13130013
#03116:0013
#03117:0000001200000012
#03212:00000013
#0321b:1313
#03217:0012130000120000
#03213:0000001200000000
#03412:140014130000
#03416:001400140014000000000000
#0341a:001400000000
#0341b:0013
#03517:00000013
#03512:001400130000
#0351a:141400
#03516:001400140014000000000000
#0351b:0000000023232323
#03612:0013
#03619:0000000000001313
#03615:00130000
#03614:0000000000001313
#03618:00130000
#0361b:233333000000
#0401a:00140000
#04018:000000000013
#04015:000000000000000000000013
#04012:13001413
#04016:2400001400000000
#04017:0013
#04118:001300130013001300130013
#0411b:130013
#04115:000000000013
#04112:240024
#04114:002400240000
#04116:002400
#04318:0000000000130013
#04315:00000000000000000000001300000013
#0431b:13001313
#04312:13000000130000000000000000130000
#04416:0000000000000014
#04412:2300000000240013
#0441b:23
#0441a:00000023000000000000240000000000
#04419:0000002300000000
#04413:00000023000000000000000000000000
#04414:0000002300000000
#0511b:00131300
#05112:00131300
#05118:00000000000000000000001200000000
#05116:2400000000121200
#05119:0013001300000013
#05114:0013001300000013
#05215:00000000000000000000000000130013
#05212:13
#05217:0000001300000000
#05218:0000000000000013
#0521b:13131313
#05416:0013
#05412:1300001300131300
#0541b:00000013000000001300000000001300
#05417:13
#05517:00000012000000000000000000000000
#05519:00120000
#05515:0012000013001300
#0551b:1300001300001300
#05518:0000000000130013
#05512:0000001300000013
#0611c:1212
#06118:0000120000000012
#0611a:0000001200000000
#06116:12
#06112:0012
#0611f:11
#0641a:0012
#06416:00000012
#06418:0000000000120000
#06414:0000000000000012
#07019:0000001300130013
#07017:00130013
#07012:2c232c23
#0701f:21
#07214:0013001400000000
#07218:0000000000140014
#07216:13002413
#0721b:1313
#07217:00130000
#07212:00240000
#0721a:00000024
#0731b:00130000
#07316:2400001400001300
#07317:0013
#07318:000000000013
#07315:000000000000000000000013
#07312:1313
#0851a:000000000012
#08518:000000000000000000000012
#0851b:13
#08516:0000001300000000
#08512:13131313
#08616:12000012
#08614:001200000000000000000012
#08617:001212000000
#08612:001200120000
#0861c:001212
#0861a:000000000012
#00016:0000000000000012
#00019:00000000000000000000000000000012
#02312:1200001212000000
#02317:1200000000121200
#0231c:0012120000001200
#02319:0000000000000012
#02416:1200000000120000
#02412:1200001200001200
#0241c:00120000
#02414:0000000012000012
#02418:00000012
#0241a:0000000000000012
#02419:0012001200000000
#02417:0012000000000000
#02712:0012120000001200
#02718:00000012
#0271a:0000000000120012
#0271c:1200001212000000
#02717:12
#02714:0000000000000012
#0281c:12
#02818:0000001200000000
#02816:12
#0281a:0000001200000000
#06014:001300000000
#06016:001300
#06019:000013
#06017:000000000013
#0601a:241414000000
#06012:230000241414
#0601b:0023
#06218:12
#06216:0000120000000012
#06214:0000001200000000
#06212:0012
#0621c:0012
#0631a:0000000000120012
#06318:00120012
#0631c:0012
#06715:0011
#0671a:0021
#06718:22
#06812:1100111111111111
#0681d:2100212121212121
#0691c:0012000000120012
#06912:11001200000000000000001200000012
#0691a:00120000
#06918:0000001212001200
#06914:00120000
#06916:00000000000012000012000000120000
#0691d:21
#0711b:13
#07119:0013000000000000
#07116:13
#07114:0000001300130013
#07112:00132c13
#07117:00230023
#07110:41
#0751a:000000142400000000141400
#07512:240000000014240000001400
#0751b:13
#07516:001424000000001424000000
#08818:12000000000000002200001200000000
#08816:00120012
#0881c:00120000
#08819:0000000000000012
#08812:22
#00212:12001213
#00218:0013130000130000
#00215:00000013000013000000001300000000
#0021c:1212
#00216:0000000000000012
#00219:00000000000000000000000000000012
#00612:13
#0061b:13000013130000001300000000001300
#00614:0000001300000000
#00616:0013000013000000
#00617:00000000000000000000001313000000
#00619:0000001300000000
#00618:00000000000000000000000000000013
#01012:001200000000
#01014:00120000
#01016:000012000012
#01018:000000000012000012000000
#0101a:0012
#01019:000000000000001200000000
#01017:00000012
#01015:220000000000000000000012
#0101b:22
#0171c:1212001200120012
#01714:0000001300000000
#01712:2300000013000013
#01716:00130000
#0181c:0012001200120012
#01816:1313
#01812:0013001300000000
#01814:0000000000000013
#0191c:0012001200120012
#01914:0000000000000013
#01916:13001313
#01912:00130000
#02617:1212000012121212
#02615:0000001200000000
#02612:0012000012000000
#0261c:1200120000000012
#02619:0000001200000000
#0531b:13
#05312:1300000000000000000000120000000014000000000000000000000000000000
#05316:0012000000000014
#0531a:00000000000000000012000014000000
#05317:0000000000120000
#05314:00000000000000000000001200000000
#05318:0012000000000000
#03714:0000001300130013
#03719:2500000000000013
#03712:25230028
#03716:0023
#03710:41
#03816:13
#03812:0013000000002800
#03819:0000001300130013
#03814:0000000000000013
#0381b:2323
#03817:00230000
#03916:1324
#03912:0013001300002400
#0391b:1300000000130013
#03918:0000001400000000
#03914:0000000000140014
#0391a:00240000
#04215:001300130013001300130013
#04212:130013
#04218:002400240013
#0421a:240024
#04216:002400
#04812:00140000
#0481b:13000013
#04816:2400001413000000
#0481a:0014
#04815:000000000013
#04818:000000000000000000000013
#04519:0000001300130013
#04514:0000000000000013
#04516:24000028
#0451b:23230000
#04517:0023
#04617:13
#0461b:0013000000000000
#04614:0000001300130013
#04619:0000000000000013
#04612:2323
#04616:00230028
#04717:13
#0471b:0013001300000000
#04712:1300240000130013
#04714:0000001400000000
#04718:0000000000140014
#04716:0024
#0471a:00000024
#04914:001200000000240000000000
#04918:000024000012000000001300
#0491c:000012
#04912:120000000000000024130000
#04916:000000122400000000000000
#0491a:240000000000001200000000
#04915:000000000000000000000013
#04910:41
#0501a:001200000000000024000000
#05016:000000002412000000000012
#05012:240012
#0501c:12
#05018:000000120000240000002400
#05014:000024000000001200120000
#05717:00130000
#05719:000000000013000000000000
#0571b:000000000000001300000000
#05718:00000013
#05715:260000000000000000000013
#05816:00130000
#05814:000000000013000000000000
#05812:000000000000001300000000
#05815:26000013
#05818:000000000000000000000013
#05915:260000160000001600000016
#05912:000000000016000000000000
#05918:00000016
#05910:41
#06512:1212
#06516:0000120000000012
#06514:0000001200000000
#06518:12
#0651c:0012
#06616:12
#0661c:00120000
#0661a:0012001200000000
#06618:0000000012000012
#06612:0012
#07412:130000142400000000140000
#07416:001424000000001424000000
#0741a:240000000014240000000000
#07415:000000000013
#07418:000000000000000000000013
#07612:13001313
#07615:0000000000000013
#0761b:13000000130000000000000000130000
#07618:00000000000000000000000000000013
#07616:0000000000140000
#07716:0000000000000014
#0771b:2300000000000013
#07712:2300000000240000
#07713:00000023000000000000000000000000
#07714:0000002300000000
#0771a:00000023000000000000240000000000
#07719:0000002300000000
#07814:0000001300130013
#07816:24130013
#07812:232c
#0781b:00230023
#08018:0000001400000000
#08014:0000000000140014
#08017:13000013
#08019:0013000000000000
#08012:13001324
#08016:00132400
#0801a:00240000
#08112:00130000
#08116:2400001413000000
#0811b:1313
#08115:000000000013
#08118:000000000000000000000013
#08117:00000013
#07912:132c
#07914:0013000000000000
#07917:13
#07919:0000001300130013
#0791b:00130013
#07916:00230023
#0821b:13000013
#08214:001400000000001400000000
#08218:000000140014000000001300
#08212:240000140014000024000000
#08215:000000000000000000000013
#0821a:000000002400001400000000
#08216:002400240000
#08312:130000002400001400140000
#08318:001400000000001400140000
#08314:000000140014000000000014
#0831a:240000140014000024000000
#08316:002400240024
#08412:24131300
#0841b:00131300
#08416:00000000000000000000001200000000
#08418:0000000000121200
#08414:0013001300000013
#08419:0013001300000013
#0841a:24
#08712:001200000000
#08718:00120012
#08714:000000001200000000000012
#0871a:000000000012000012000000
#08716:000000120012
#0871c:000000000000001200000000
#0561b:1300000000131300
#05618:0013
#05612:0013131300000013
#05615:13
#05617:0000000000000013
#0331b:13130000
#03315:001300000013000000000000
#03318:001313000000
#03316:000000000000001414000000
#03312:13001314
#0331a:00000014
#08912:22
#0891c:22
#00457:53
#0045b:0023000000000000
#00452:53
#00456:0023000000000000
#0055b:63
#00557:0023000053000000
#00758:0053
#00755:00530000
#00752:0023
#0075b:0000000000230000
#0085b:53
#00852:53
#00854:0000002300000000
#00859:0000002300000000
#00952:13
#0095b:13
#01457:5353
#01452:0012001200120012
#0145b:0023000000000000
#0165b:53
#01652:0012001200000000
#01657:00000023000000000000000000000000
#02052:53
#02057:00000000002300000000000000000000
#0205c:0012001200000000
#02257:5212
#0225c:0022000012000000
#02352:52
#0235c:00520000
#02452:52
#02457:0022000000000000
#0285c:52
#02858:0000002200000000
#0285a:0000002200000000
#02856:52
#03057:000000231300
#03052:00530000
#03452:0063
#03455:000013
#0345b:0053
#03458:000013
#03557:00000063
#03552:0063
#03652:1313
#03655:00130000
#03658:00230000
#0365b:53
#03752:35130018
#03759:45
#03756:0013
#04052:53
#04057:0053
#0435b:63
#04352:00230000
#05257:0000002300000000
#05252:53
#0545b:00000023000000005300000000000000
#05452:53000053
#0615c:0012
#06152:0052
#06156:52
#06252:0012
#0625c:0052
#06258:52
#07052:1c131c13
#07352:53
#07357:0053
#08657:005200120000
#0865c:005200
#08652:0012
#08858:12
#05755:16
#05955:16
#06052:13
#0605b:0013
#00652:53
#00656:0023000063000000
#01352:0012001200120012
#0135b:1353
#01552:0012001200120012
#01559:0053005300000000
#01557:23
#0155b:00230000
#0175c:0012001200120012
#01752:1363
#0185c:0012001200120012
#01856:6363
#01852:0023000000000000
#0195c:0012001200120012
#01956:2323
#01952:00230000
#0255c:0012
#02557:0012
#02556:52
#02657:6212
#02652:0022000012000000
#0275c:62
#02752:00620000
#02952:000052
#03253:0000002200000000
#03257:0022530000220000
#0325b:5353
#03252:00000013
#0315b:0000000000220000
#03156:0053
#03152:00530053
#03157:0000002200000022
#0535b:13
#05352:13
#0535a:00000014
#05358:0052000000000000
#03857:00130000
#0385b:0013
#03852:00000018
#03956:53
#03952:0023000000000000
#04452:0000000000140013
#0445a:0000000000140000
#0455b:13130000
#04557:0013
#04556:00000018
#0485b:63
#04856:0063
#04757:63
#0475b:0023000000000000
#04656:00130018
#04652:0013
#05156:14
#05152:00130000
#0515b:0013
#05855:16
#06552:0012
#06558:62
#0655c:0062
#06656:62
#06658:0012
#06652:0062
#07157:00130013
#07152:001c
#07257:00130000
#0725b:0013
#07256:00000013
#07652:53
#0765b:00230000
#0775b:0000000000000013
#07752:0000000000140000
#0775a:0000000000140000
#07852:131c
#0785b:00130013
#08156:0063
#0815b:63
#08056:00130000
#08052:0013
#08057:00000013
#07956:00130013
#07952:001c
#0845b:00130000
#08452:1413
#0845a:14
#0855b:63
#08556:0000002300000000
#0565b:23
#05652:0000002300000000
#03352:00000014
#0335a:00000014
#02157:0000002200000000
#0215c:0042
#02152:0012
#01158:00220000000000005200000000000000
#0115a:52
#01154:00000000000000000022000000000000
#0033b0:00000000133333330000000000000000
#003360:0023
#003321:00000000000000001333333300000000
#003371:00000023
#004371:13230000
#0043b1:0053000000000000
#004320:13230000
#004360:0053000000000000
#0053b0:13230000
#005370:0053000000000000
#005370:0013
#0053b0:00000023
#006320:13230000
#006360:0053000000000000
#006360:0013
#006320:00000023
#007350:00130023
#007320:0053
#007381:00001323
#0073b1:0000000000530000
#008321:13000023
#008391:0000005300000000
#0083b0:13000023
#008340:0000005300000000
#0113a0:12
#011380:00520000000000000000000000000000
#0113c0:00220000
#011380:00001222
#011340:00000000000000000052000000000000
#0133b0:0013
#013370:00000023
#014370:13230000
#0143b0:0053000000000000
#014370:0013
#0143b0:00000023
#015370:1323
#015390:0033003300000000
#0153b0:00330000
#0163b0:1300002300000000
#016370:00000053000000000000000000000000
#017320:0013
#017360:00000023
#018360:13230000
#018320:0053000000000000
#018360:0013
#018320:00000023
#019360:13
#019320:0023000000000000
#019320:00130000
#019360:0000002300000000
#019360:0013
#019320:0000000000230000
#020320:1300000000230000
#020370:00000000005300000000000000000000
#021370:000000000000000000000000120000000000520000323232000000000000000000000000000000000000000000000000
#0213c0:0022
#022370:12220000
#0223c0:0052000000000000
#023320:12
#023370:00220000
#0233c1:00120000
#023371:0022
#024321:12220000
#024371:0052000000000000
#025361:12
#025321:00220000
#026371:12220000
#026321:0052000000000000
#0273c1:12
#027371:00220000
#027320:00120000
#027370:0022
#0283c0:12000022
#028380:0000005200000000
#028361:12000022
#0283a1:0000005200000000
#029321:000012
#030371:22
#030321:00130000
#030371:000000000023000000000000
#030371:0013
#030321:000023
#031321:00132300
#031371:0000005200000000
#031360:00001323
#0313b0:0000000000520000
#031321:00000013
#031371:0000000000000052
#032321:23
#0323b0:13230000
#032370:0052000000000000
#032371:00132300
#032331:0000005200000000
#0323b0:00001323
#032370:0000000000520000
#034320:0013
#034350:000023
#0343b1:0013
#034381:000023
#035321:0000000013000033
#035371:0000000000333300
#036321:23
#0363b0:133333230000
#036380:00530000
#037370:00130000
#037390:0000002300000000
#0373b0:0013
#037390:0000000000230000
#0383b0:13
#038370:0023000000000000
#038320:00130000
#038340:0000002300000000
#038360:0013
#038340:0000000000230000
#039360:13230000
#039320:0053000000000000
#040320:13
#040360:00230000
#040370:0013
#0403b0:00000023
#0433b0:13
#043370:00230000
#043321:00130000
#043361:0023
#045361:00130000
#045341:0000002300000000
#045321:0013
#045341:0000000000230000
#046321:13
#046361:0023000000000000
#0463b1:00130000
#046391:0000002300000000
#046371:0013
#046391:0000000000230000
#047371:13230000
#0473b1:0053000000000000
#0483b1:13
#048371:00230000
#048361:0013
#048321:00000023
#052321:13000023
#052371:0000005300000000
#053381:0012000000000000
#0533c1:0000000000000000000000220000000000000000000000000000000000000000
#054321:13
#054361:00000023000000000000000000000000
#0543b0:00000013000000000000000000000000
#054370:0000002300000000
#0543b0:0013
#054370:0000000000332300
#054321:00000013
#054361:0000000000000033
#055361:23
#0563b1:13
#056361:0000002300000000
#056320:0000001300000000
#056370:00000023
#057320:132300000000000000000000
#057340:000013230000000000000000
#057360:000000001323000000000000
#057380:000000000000132300000000
#057350:000000000000000013230000
#057320:000000000000000000001323
#0583b0:132300000000000000000000
#058390:000013230000000000000000
#058370:000000001323000000000000
#058350:000000000000132300000000
#058380:000000000000000013230000
#0583b0:000000000000000000001323
#059320:13
#059350:002300000000000000000000
#059380:001300000000
#0593b0:00230000
#0593b0:001300
#059380:000000000023000000000000
#059350:0013
#059320:000000000000002300000000
#059320:000013
#059350:00000023
#059380:000000000013
#0593b0:000000000000000000000023
#061360:12
#061320:0032
#062360:22
#062381:12
#0623c1:0032
#063381:22
#063360:1232
#063320:00320022
#0643c0:12
#064380:00220000
#064361:12
#064321:00220000
#065381:12
#0653c1:0032
#066381:22
#066360:12
#066320:0032
#067360:22
#073320:13
#073360:00230000
#073370:0013
#0733b0:00000023
#076320:13
#076360:00230000
#0763b1:00130000
#076371:0023
#0813b1:13
#081371:00230000
#081361:0013
#081321:00000023
#0853b1:13000023
#085361:0000005300000000
#086371:001200220000
#0863c1:003200
#087381:122200000000
#088361:00000000000000001200002200000000
