This file was generated by Ched 2.7.0.0.
#TITLE ""
#ARTIST ""
#DESIGNER ""
#DIFFICULTY 0
#PLAYLEVEL
#SONGID ""
#WAVE ""
#WAVEOFFSET 0
#JACKET ""
#REQUEST "ticks_per_beat 480"
#00002: 4
#BPM01: 165
#00008: 01
#TIL00: ""
#VOLUME: ""
#HISPEED 00
#MEASUREHS 00
#0011a:1414
#00114:00140000
#00212:1414
#00218:00140000
#0031a:14
#00314:00140000
#00318:0014
#00312:00000014
#00414:0014
#00418:00000014
#00512:1414
#00518:00140000
#0061a:1414
#00614:00140000
#00814:14
#00812:00000000000000140000000000000000
#0091a:00140000
#00914:0014
#00918:00000014
#01012:14
#0101a:00140000
#01014:0014
#01018:00000014
#01112:14
#01118:0014
#01214:0014000000000000000000000000000000000000000000001400000000000000
#01218:0014
#0131a:1414
#01314:00140000
#01310:41
#01412:1414
#01418:00140000
#01518:14
#01512:00140000
#0151a:0014
#01514:00000014
#01614:0014
#01618:00000014
#01712:1414
#01718:00140000
#0181a:1414
#01814:00140000
#01914:14
#0191a:00140000
#01912:0014
#01918:00000014
#02014:14
#02012:0000001400000000
#02119:00141400
#02113:00141400
#02110:41
#0231a:14
#02314:00140000
#02318:0014
#02312:00000014
#0241a:14
#02414:0014
#02418:00000014
#02712:14
#02718:00140000
#02714:0014
#0271a:00000014
#02812:14
#02814:0000001400000000
#02514:14
#0251a:00140000
#02512:0014
#02518:00000014
#0291a:14
#02914:00140000
#03012:14
#03018:00140000
#0311a:14
#03114:00140000
#03118:0014
#03112:00000014
#03218:1414
#03212:00140000
#03214:00000014
#0351a:14
#03514:00140000
#03518:0014
#03512:00000014
#03614:00000014
#03618:0000000000000014
#0371a:00140000
#03714:2414
#03718:00000024
#03710:41
#03812:00140000
#03818:0014
#03814:00000024
#0391a:00140000
#03914:0014
#03918:00000014
#04012:14
#04018:00140000
#04014:0000001400000000
#04312:14
#0431a:00140000
#04314:0000000014000014
#04318:00000014
#04418:14
#04512:00140000
#04518:0014
#0451a:24
#04514:00000024
#0461a:00140000
#04614:0014
#04618:00000024
#04712:00140000
#04718:0014
#04714:00000014
#0481a:14
#04814:00140000
#04818:0000001400000000
#0511a:00140000
#05114:00001414
#05118:0000000000140014
#05214:14
#05318:00140000
#05314:0014
#0531a:00000014
#05312:24
#05412:14
#05418:00140000
#05414:0014
#0541a:00000014
#0611a:0014
#0611f:11
#06214:14
#06218:0014
#06312:14
#06318:0014
#06414:14000014
#0641a:0014
#06518:14
#06512:0014
#06618:14
#06614:0014
#0671a:1424
#06712:0024
#06918:1400001400000000
#06914:00141400
#07014:0000140000140000
#07018:00001414
#0701a:24
#0701f:21
#07112:14
#07118:0000140000140000
#07114:00001414
#07110:41
#0721a:14
#07214:00140000
#07218:0014
#07212:00000014
#0761a:14
#07612:00140000
#07618:0000000014000014
#07614:00000014
#07714:14
#07818:0000140000140000
#07814:00001414
#07812:24
#0791a:14
#07914:0000140000140000
#07918:00001414
#08012:14
#08018:00140000
#08014:0014
#0801a:00000014
#08412:00140000
#08418:00001414
#08414:0000000000140014
#08518:14
#08814:00140014
#08818:0000000014000014
#08912:24
#05712:243434000000
#0581a:243434000000
#05912:243434000000
#05914:000000003434
#05910:41
#04112:003434000000
#0421a:003434000000
#0491a:003434000000
#04910:41
#05012:003434003434
#0741a:003434000000
#07512:003434000000
#08212:003434000000
#0831a:003434003434
#08614:003434000000
#08718:003434003434
#00854:54
#00852:00000000000000240000000000000000
#0135a:0014
#01452:0014
#01752:0014
#0185a:0014
#02054:54
#02052:0000002400000000
#0245a:54
#02852:64
#02854:0000002400000000
#03754:14
#04154:0014
#04258:0014
#0455a:14
#04458:64
#04958:0014
#05152:14
#05254:54
#05352:14
#0705a:14
#07458:0014
#07554:0014
#07754:54
#07852:14
#08254:0014
#0845a:14
#08558:64
#0043a0:14240000
#007320:14240000
#007380:00001424
#008340:1400000000000034
#008320:00000000000000540000000000000000
#009340:24
#016380:14240000
#020340:14000024
#020320:0000005400000000
#022380:14
#0223a0:00240000
#022340:0014
#022320:00000024
#0243a0:14
#024380:00240000
#026340:14
#026320:00240000
#026380:0014
#0263a0:00000024
#028320:14000024
#028340:0000005400000000
#029380:00001424
#030340:00001424
#0333a0:14
#033380:00240000
#033340:0014
#033320:00000024
#034320:14
#034340:00240000
#034380:0014
#0343a0:00000024
#0363a0:14
#036390:00340000
#036380:0024
#040380:00001424
#041320:143434000000
#041340:0024
#0423a0:143434000000
#042380:0024
#044380:14
#0443a0:0000000000000034
#0453a0:24
#048340:00001424
#0493a0:143434000000
#049380:0024
#050320:143434003434
#050340:0034
#051320:24
#052340:14
#052320:0000000000000034
#053320:24
#055320:14240000
#055380:00001424
#056340:14240000
#0563a0:00001424
#057320:143434000000
#057340:0024
#0583a0:143434000000
#058380:0024
#059320:143434000000
#059340:000000343434
#060320:34
#060330:0034
#061340:24
#068320:14000024
#0683a1:14000024
#0733a1:14
#073381:00240000
#073341:0014
#073321:00000024
#0743a1:143434000000
#074381:0024
#075321:143434000000
#075341:0024
#077341:14
#077321:0000000000000034
#078321:24
#081321:14
#081341:00240000
#081381:0014
#0813a1:00000024
#082321:143434000000
#082341:0024
#0833a1:143434003434
#083381:0034
#0843a1:24
#085381:14
#0853a1:00000024
#086341:143434000000
#086321:0024
#087381:143434003434
#0873a1:0034
#088381:24
