This file was generated by Ched 2.7.0.0.
#TITLE ""
#ARTIST ""
#DESIGNER ""
#DIFFICULTY 0
#PLAYLEVEL
#SONGID ""
#WAVE ""
#WAVEOFFSET 0
#JACKET ""
#REQUEST "ticks_per_beat 480"
#00002: 4
#BPM01: 170
#BPM02: 160
#BPM03: 140
#BPM04: 68.75
#BPM05: 133
#BPM06: 183
#06708: 0001
#06808: 00000203
#00008: 04
#06908: 05
#02308: 0006
#TIL00: ""
#VOLUME: ""
#HISPEED 00
#MEASUREHS 00
#0081a:14
#00814:0014
#00810:41
#0091a:14
#00914:0014
#01018:14
#01012:0014
#01118:14
#01112:0014
#0121a:14
#01214:0014
#01210:41
#0131a:14
#01314:0014
#01418:14
#01412:0014
#01518:14
#01512:0014
#0201a:14
#02014:0014
#02010:41
#0211a:14
#02114:0014
#02218:14
#02212:0014
#0221f:0011
#03118:16
#03112:0016
#03518:16
#03512:0016
#04814:0014
#04818:14
#06018:0014
#0631a:0014
#06512:0014
#03218:16
#03210:41
#03412:0016
#03618:16
#03912:16
#03918:0016
#04312:16
#04318:0016
#04012:16
#04218:0016
#04412:16
#04712:0014
#0491a:14
#03012:0026
#0301f:0021
#06114:0024
#0231a:24
#03818:0026
#01610:41
#05310:0041
#0043a0:1424
#005340:1424
#006380:1424
#007320:1424
#0163a0:1424
#017340:1424
#018380:1424
#019320:1424
#023320:0000000014000034
#024320:0000340000340000
#025320:24
#025380:0000000014000034
#026380:0000340000340000
#027380:24
#027340:0000000014000034
#028340:0000340000340000
#029340:24
#0293a0:0000000014000034
#0303a0:00240000
#032320:0016
#033320:26
#033380:0016
#034380:26
#036320:0016
#037320:3626
#040380:0016
#041380:26
#041320:0016
#042320:26
#044380:0016
#045380:3636
#047380:26
#049320:0016
#051320:0026
#0533a0:0014
#055380:0024
#057320:0014
#059340:0024
#067380:0014
#068380:00003434
#069380:34240000
