This file was generated by Ched 2.7.0.0.
#TITLE ""
#ARTIST ""
#DESIGNER ""
#DIFFICULTY 0
#PLAYLEVEL
#SONGID ""
#WAVE ""
#WAVEOFFSET 0
#JACKET ""
#REQUEST "ticks_per_beat 480"
#00002: 4
#BPM01: 170
#BPM02: 160
#BPM03: 140
#BPM04: 68.75
#BPM05: 133
#BPM06: 183
#06708: 0001
#06808: 00000203
#00008: 04
#06908: 05
#02308: 0006
#TIL00: ""
#VOLUME: ""
#HISPEED 00
#MEASUREHS 00
#0041b:13
#00418:0000001300000000
#00415:00130013
#00412:2313
#0101b:13130013
#01018:0000000000130000
#01014:0000000000000013
#01012:0013001300001300
#01017:0000001300000000
#01016:1313
#03317:0000131300000000
#03318:0000000000000013
#03316:13
#03312:0000001300001313
#04915:13130000
#04918:0013000000000000
#0491a:00000012
#0491c:0022
#05312:1324
#05316:0000120000000012
#05318:0000001200001200
#0531b:13
#0531a:0024
#05310:0041
#00717:13000000000013000000000000000013
#00712:13
#00716:00000013000000001300000000000000
#0071b:00000013000000001300000000000000
#00819:0000000000130000
#0081b:0013001300001300
#00816:0000001300001300
#00817:2300130013000013
#00812:1300130000000013
#00814:0000000000130000
#00810:41
#00912:0013000000001300
#00919:0000000000000013
#0091b:1300001300000000
#00917:0013000000001300
#00916:1300131300000000
#00914:0000000000000013
#01118:000000000013000000000000000000000000130000130000
#01115:00000000130000000000000000130013
#01112:0013001300130000
#01117:0000001300000000
#0111b:1300000000130000
#01116:1313
#01612:2300130000000013
#01615:0000001300001300
#0161b:2300130013001313
#01618:0013000000130000
#01610:41
#01715:1300130013130000
#01712:00001300000013000000001300001300
#01718:00000000000013000013000000000000
#0171b:00130013
#01717:0000000000000013
#01912:13131300
#0191b:00131300
#01915:0000001300000013
#01918:00001300000000000000000000000013
#0231a:0000002400141400
#0231b:13
#02312:1324
#02315:00001300001300000000000000000000
#02318:00000013000000000000000000000000
#02314:0000000000000024
#0241a:1414001414001414
#02412:00240000
#02414:0000000000240000
#03115:00130000
#03117:1300001300000000
#03112:0000001300000000
#03116:00000013
#03212:00130013
#03214:13
#03219:13
#03217:00130013
#0321b:0013
#03216:0013
#03210:41
#05012:33130000
#05018:12
#05017:00230000
#05116:00000012
#05118:0000120000000012
#0511c:12
#05112:0024
#0511a:0024
#05418:12000012
#05416:0000000000120000
#05412:00240000
#0541a:00240000
#05616:00000013
#05618:13
#0561b:0000000000131300
#05612:00240000
#0561a:00240000
#05717:13
#05712:1324
#05716:00000012
#05718:0000000000000012
#0571a:0024
#05818:000000000000000000130013
#05815:000000000013
#05816:12
#0581a:00240000
#05812:00240000
#05915:13
#05916:00130000
#05912:00002312
#0591b:00130000
#05917:00002313
#06012:12121213
#0601a:0014
#06019:13
#0601b:00130000
#06117:14
#06112:14151600
#06418:12000012
#06412:12
#06416:00120000
#0641c:00120000
#06514:12000012
#06516:001200000000
#06512:0012
#06518:001200000000000000000000
#0651a:00120012
#0661c:12
#06616:12120000
#06618:00000012
#06718:0013
#0671a:12000014
#06714:12
#06716:00120000
#0671c:00120000
#06712:0013
#06816:14000024
#06812:00140000
#06817:0022
#0051b:13000000000000000000000000130000
#00517:00000013000000001300000000000000
#00512:00000013000000001300000000000000
#00516:0000001300000000
#00518:0000000000000013
#00515:00000000000000000000000000000013
#00612:1300000000130000
#0061b:2300130000001313
#00618:0000001300000000
#00614:00000033
#0141b:0013001300001300
#01419:0000000000130000
#01414:0000000000000013
#01412:13130013
#01416:0000001300000000
#01417:1313
#01515:0000000000001313
#01518:00000000000000000000000000130013
#01512:0013001300130000
#01517:0000131300000000
#0151b:1313
#01516:13
#01812:0000130013000013
#0181b:2300000000131300
#01816:1300001300000000
#01817:0013130013000000
#0221b:13130013
#02214:0000000000130000
#02218:0000000000000013
#02212:0013001300001300
#02217:0000001300000000
#02216:23131300
#0221f:0011
#02017:0000130013130013
#0201b:2313001300001300
#02016:0000001300001300
#02012:1300130000000013
#02010:41
#02112:0013000000001300
#02119:0000000000000013
#0211b:1300001300000000
#02117:0013000000001300
#02116:1300131300000000
#02114:0000000000000013
#02518:0014001400000024
#02512:2400000000141400
#02514:00240000
#0251a:0024
#02612:1414001414001414
#0261a:00240000
#02618:0000000000240000
#02714:0014001400000024
#0271a:2400000000141400
#02718:00240000
#02712:0024
#0281a:1414001414001414
#02812:00240000
#02814:0000000000240000
#02918:0014001400000024
#02912:2400000000141400
#02914:00240000
#0291a:0024
#03012:1414000000000000
#03019:00000013
#03016:0023
#03018:00260000
#0301b:0023
#0301f:0021
#03717:0000001300000000
#03716:13
#03718:0013000000000000
#03712:0000002300131300
#03715:00130000
#0371b:00000023
#03612:00130013
#03614:13
#03619:13
#03617:00130013
#0361b:0013
#03616:0013
#03812:00130000000000002300000000000000
#03818:2313000000000000
#0381b:00000000001300000000000000000000
#03815:0000231300000000
#03814:00000013
#03817:0023
#03517:0000131300000000
#03516:13000013
#03512:0000001300000000
#03417:00130013
#03412:00130000
#03416:0013
#0431b:1300000000001313
#04312:0000131300000000
#04316:0000000000000013
#04317:0000001300000000
#04412:0013
#04418:0000001300001300
#0441b:0013
#04716:00140000
#0471b:0013
#04718:0000000000000013
#04712:0023
#04815:13
#04818:0013000000000000
#0481b:00230013
#04812:00230000
#05216:12
#0521b:00130000
#05212:00230000
#05512:1324
#0551b:13
#05519:00130000
#05518:00000013
#05515:0000000000000013
#05514:00130000
#0551a:0024
#06216:12120000
#06218:00000012
#0621c:00120000
#06316:12000012
#0631c:12
#06312:00120000
#06318:00120000
#00312:00000000000000000000000000130000
#00315:0000000000000013
#00318:00000000000000000000000000000013
#01214:0000000000130000
#01212:2313001300001300
#01217:0000001300001300
#01216:0000130013000013
#0121b:1300130000000013
#01219:0000000000130000
#01210:41
#0131b:0013000000001300
#01314:0000000000000013
#01312:1300001300000000
#01316:0013000000001300
#01317:1300131300000000
#01319:0000000000000013
#04116:0000131300000000
#04115:0000000000000013
#04117:13
#0411b:0000001300001313
#03918:00130000
#03916:1300001300000000
#0391b:0000001300000000
#03917:00000013
#0401b:00130013
#04019:13
#04014:13
#04016:00130013
#04012:0013
#04017:0013
#04212:0013000000001300
#04218:0013000000000000
#0421b:0023
#04216:0023
#04518:0000232400000000
#04514:0000002400000000
#04512:23
#04515:0023000000000000
#06914:28
#06912:002c0000
#0045b:63
#00458:0000002300000000
#00455:00000063
#03357:0000005300000000
#03356:13
#03352:0000000000000013
#04955:00530000
#00856:0000005300000000
#00852:63
#0095b:5300005300000000
#00957:0023000000000000
#00956:0000005300000000
#01655:0000006300000000
#0165b:0000000000000063
#01652:13
#01758:0000005300000000
#01952:5353
#0195b:00636300
#05052:00230000
#05057:00630000
#0605a:0064
#06157:24
#06152:0036
#0615a:0044
#0055b:63
#00557:00000053000000005300000000000000
#00552:0053
#00652:6300000000530000
#00658:0000005300000000
#00752:53
#00756:00000063000000006300000000000000
#0075b:0063
#01057:0000006300000000
#0105b:53
#01157:0000006300000000
#0115b:53
#01557:0000006300000000
#0155b:5323
#01852:0053
#0185b:00000063
#01856:63
#01857:00530000
#02056:0000005300000000
#02052:63
#0215b:5300005300000000
#02157:0023000000000000
#02156:0000005300000000
#02257:0000006300000000
#0225b:53
#03157:0000006300000000
#03152:0000001300000000
#0325b:0053
#03257:00000023
#03757:0000005300000000
#03752:0000001300000000
#0375b:00000013
#03557:0000005300000000
#03556:63
#03552:0000001300000000
#0365b:0053
#03657:00000023
#03457:00530053
#03456:0053
#0345b:0013
#04452:0013000063000000
#04458:00000063
#04457:0013000000000000
#04352:0000005300000000
#0435b:5300000000000063
#04356:0000000000000063
#04357:0000001300000000
#0475b:0063
#04752:0053
#0525b:00630000
#05252:00530000
#06256:00520000
#06358:00520000
#06456:00520000
#0655a:00520000
#06656:00520000
#03056:0053
#03058:00460000
#0305b:0013
#05352:0034
#0535a:0044
#05452:00340000
#0545a:00440000
#04558:0000005400000000
#04554:0000006400000000
#05552:0034
#0555a:0044
#05652:00340000
#0565a:00440000
#0235a:0000004400000000
#02752:0034
#02754:0000000000000034
#02852:00340000
#02854:0000000000340000
#02952:34
#0295a:0044
#02958:0000000000000044
#04852:00530000
#0485b:00130000
#0575a:0044
#05752:0034
#0585a:00440000
#05852:00340000
#01257:0000006300000000
#0125b:53
#01352:6300006300000000
#01356:0023000000000000
#01357:0000006300000000
#01456:0000005300000000
#01452:63
#04156:0000006300000000
#04157:13
#0415b:0000000000000013
#03956:0000005300000000
#0395b:0000001300000000
#04052:0063
#04056:00000023
#04252:0013000000006300
#0425b:0063
#03857:0063
#03852:0013
#05952:0013
#05957:0013
#0043b0:13000023
#004380:0000005300000000
#004351:00000013
#005321:23
#0053b0:1300002300000000
#005370:00000033000000000000000000000000
#005320:0013
#005360:00000023
#005371:0013
#0053b1:00000023
#006321:13
#006351:0000002300000000
#006380:0000001300000000
#0063b0:0000000000230000
#006321:0000000000130000
#006341:00000033
#006361:0000000000000023
#007321:1300002300000000
#007361:00000033000000000000000000000000
#007361:0013
#007321:00000023
#0073b0:0013
#007370:00000023
#008320:13
#008360:0023000000000000
#008360:0000001300000000
#008320:0023
#0093b0:13230000
#009370:0033000000000000
#0093b0:0000001300000000
#009370:0000000000230000
#009361:0000001300000000
#009321:0000000000230000
#0103b1:13
#010371:0023000000000000
#010371:0000001300000000
#0103b1:0023
#0113b1:13
#011371:0023000000000000
#011371:0000001300000000
#0113b1:0023
#0123b1:13
#012371:0023000000000000
#012371:0000001300000000
#0123b1:0023
#013321:13230000
#013361:0033000000000000
#013321:0000001300000000
#013361:0000000000230000
#013370:0000001300000000
#0133b0:0000000000230000
#014320:13
#014360:0023000000000000
#014360:0000001300000000
#014320:0023
#0153b0:13
#015370:0023000000000000
#015370:0000001300230000
#0153b0:0053
#016350:0000001300000000
#016320:0023
#0163b0:0000000000000013
#017380:0023000000000000
#017380:0000001300000000
#0173b0:0023
#018360:13
#018320:0023000000000000
#018370:00130000
#0183b0:0000002300000000
#018320:0013
#018360:0000000000332300
#0183b1:00000013
#018371:0000000000000033
#019371:23
#019320:13
#019350:0023000000000000
#0193b0:00130000
#019380:0000002300000000
#019320:0013
#019350:00000000000000000000003323000000
#0193b1:0013
#019381:00000000000000000000003323000000
#020321:13
#020351:0023000000000000
#020361:0000001300000000
#020321:0000000000230000
#0213b1:13230000
#021371:0033000000000000
#0213b1:0000001300000000
#021371:0000000000230000
#021360:0000001300000000
#021320:0000000000230000
#0223b0:13
#022370:0023000000000000
#022370:0000001300000000
#0223b0:0023
#030360:0013
#031320:23
#031370:0000001300000000
#0313b0:00000023
#0323b0:0013
#032370:00000033
#0333b0:23
#033370:0000001300000000
#0333b0:00000023
#034370:00130000
#0343b0:0023
#034361:0013
#034321:00000023
#034370:00000013
#0353b0:23
#035361:13
#035321:00230000
#035371:0000001300000000
#0353b1:00000023
#0363b1:0013
#036371:00000033
#0373b1:23
#037371:0000001300000000
#0373b1:00000023
#038371:0013
#0393b1:23
#039361:0000001300000000
#039321:00000023
#040321:0013
#040361:00000033
#041321:23
#041361:0000001300000000
#041321:00000023
#0423b1:0013
#042371:00000023
#042320:00000013
#043360:23
#0433b1:13
#043371:00230000
#043321:0000001300000000
#043361:00000023
#0433b1:0000000000000013
#044371:0023000000000000
#043360:0000000000000013
#044320:0023000000000000
#044320:0013
#044350:00000023
#044381:00000013
#0453b1:23
#045381:0000001400000000
#0473a1:24
#045340:0000001400000000
#047320:24
#047320:0013
#047350:00000023
#0473b1:0013
#047381:00000023
#048321:00130000
#048361:00000023
#049351:00130000
#050321:33330000
#051351:00230000
#050370:00130000
#0503b0:00000023
#052321:00130000
#052351:00000023
#0523b0:00130000
#052380:00000023
#0603a0:0014
#061370:34
#0613a0:0024
#062360:00120000
#062320:00000022
#063380:00120000
#0633c0:00000022
#064360:00120000
#064320:00000022
#0653a0:00120000
#0653c0:0022
#066360:00120000
#066320:00000022
