This file was generated by Ched 2.7.0.0.
#TITLE ""
#ARTIST ""
#DESIGNER ""
#DIFFICULTY 0
#PLAYLEVEL
#SONGID ""
#WAVE ""
#WAVEOFFSET 0
#JACKET ""
#REQUEST "ticks_per_beat 480"
#00002: 4
#BPM01: 170
#BPM02: 160
#BPM03: 140
#BPM04: 68.75
#BPM05: 133
#BPM06: 183
#06708: 0001
#06808: 00000203
#00008: 04
#06908: 05
#02308: 0006
#TIL00: ""
#VOLUME: ""
#HISPEED 00
#MEASUREHS 00
#0321b:0013
#03215:00130013
#03218:13
#03212:0013
#03210:41
#03318:1300001300000000
#03315:00130000
#01118:00001300000000000000000000000013
#01112:13
#01115:0000130000000013
#0111b:0000001300000000
#01015:00130013
#0101b:1300000000130000
#01018:0013000000000013
#01012:0000001300000000
#0181b:00130013
#01815:0013000013000000
#01812:0000001300000000
#01818:2300000000130013
#03618:00130000
#03615:13000013
#03612:0013
#0361b:0013
#03715:0013001300000000
#03718:13130000
#0371b:00000013
#03412:0013
#03415:00130000
#0341b:0013
#03418:00000013
#0471b:0013
#04712:0013
#04718:00000013
#05318:13
#05315:00130013
#05312:0024
#0531a:0024
#05310:0041
#0621b:00130000
#06212:00130000
#06218:00000013
#0661b:00130000
#06618:13
#06615:00000013
#0051b:1313
#00518:00000013000000000000000000001400
#00512:00000000000000000000000000140000
#00514:00000000000000000000000000000014
#0061a:14
#00618:0000001400001300
#00615:0000000000000013
#00815:0013001300001300
#00818:0000130000130013
#0081b:23
#00810:41
#00912:13
#00915:0013000000000013
#00918:00130013
#0091b:0000001300000000
#01615:00130013
#01618:0000001300000000
#0161b:2300000000000013
#01612:23
#01610:41
#01712:0000130000000013
#01715:0000000000130000
#01718:00000000000013000000001300000000
#0191b:0013
#01915:1300001300000013
#01918:00000000130000000000000000000013
#01912:0013000000000000
#02218:00130013
#02215:0013001300000013
#0221b:0000000000130000
#0221f:0011
#02212:23
#02015:0013001300001300
#02018:0000130000130013
#02012:23
#02010:41
#0211b:1300001300000000
#02115:0013000000001300
#02118:0000130000000013
#02318:1300000000000024
#0231b:00000013000000000000000000000000
#02312:00002414
#02418:0014000000000000
#02414:00241400
#0241a:0000000000240014
#0291a:00002414
#02914:0000000000000024
#02912:24240000
#03014:0014000000000000
#03018:00240000
#0301b:0023
#03015:0023
#0301f:0021
#03118:00130000
#03115:0000001300000000
#03515:13
#03512:00130000
#0351b:0000001300000000
#04415:0000001300000000
#0441b:0013
#0421b:0013000023000000
#04215:13000013
#04212:0023
#04815:13
#04812:00230000
#04818:00230000
#05118:00130013
#05115:13
#05112:0023
#0511b:0023
#05215:13
#05218:00130000
#05212:00230000
#05418:13
#05412:00240013
#0541a:00240000
#05515:13
#05518:00130013
#05512:0024
#0551a:0024
#05615:13000013
#05612:00240000
#0561a:00240000
#05718:13
#05715:00000013
#05712:1324
#0571a:0024
#05818:13000013
#05812:00240000
#0581a:00240000
#05915:13
#05918:00130000
#05912:00002413
#0591a:0024
#06015:13
#06018:00130000
#0601a:0014
#06012:0014
#06118:14
#06114:14
#0641b:00000013
#06518:13
#06515:00130013
#06512:0013
#06718:13
#06715:00130000
#06712:0013
#0671b:00000013
#06818:13
#06815:00130000
#06812:00002325
#0031a:00000000000000000000000000140000
#00314:0000000000000014
#00318:00000000000000000000000000000014
#00414:0000001400000000
#00412:14
#00712:1313
#00715:00000013000000000000000000000000
#01515:0013000000000000
#0151b:13
#01518:00130000
#01512:0000001300000000
#01418:00130013
#01412:1300000000130000
#01415:0013000000000013
#0141b:0000001300000000
#01218:0013001300001300
#01215:0000130000130013
#01212:23
#01210:41
#0131b:13
#01318:0013000000000013
#01315:00130013
#01312:0000001300000000
#0251a:00002414
#02512:24240000
#02514:0000000000000024
#02614:0014000000000000
#02618:00241400
#02612:0000000000240014
#02712:00002414
#0271a:24240000
#02718:0000000000000024
#02818:0014000000000000
#02814:00241400
#0281a:0000000000240014
#04012:0013
#04018:00130013
#04015:13
#0401b:0013
#04115:1300001300000000
#04118:0000130000000013
#03915:00130000
#03918:0000001300000000
#04318:1300000000000013
#0431b:00130000
#04312:0000001300000000
#04915:00000013
#04912:0023
#0491b:0023
#05018:13
#0501b:00130000
#05015:00130000
#06315:00000013
#04515:23232300
#04518:0023002300000000
#03812:0023
#03818:2323
#03815:00230000
#06912:27290000
#03358:0000005300000000
#0335b:0000000000000013
#03755:0000005300000000
#0065a:64
#00658:0000005400000000
#00855:0000005300000000
#0095b:0000005300000000
#01052:0000005300000000
#0115b:0000006300000000
#01658:0000006300000000
#0165b:0000000000000063
#0195b:0063
#02055:0000005300000000
#0215b:0000005300000000
#02255:0000006300000000
#02358:63
#0235b:00000053000000000000000000000000
#05258:00630000
#05252:00530000
#0605a:0064
#06052:0054
#06258:00000053
#03155:0000006300000000
#0355b:0000006300000000
#0305b:0053
#03055:0053
#04555:0063
#00454:0000002400000000
#00452:54
#0055b:5353
#00558:00000053000000000000000000000000
#00752:6363
#00755:00000063000000000000000000000000
#01258:0000006300000000
#01352:0000006300000000
#0145b:0000006300000000
#01552:0000005300000000
#01758:0000005300000000
#04155:0000006300000000
#03958:0000005300000000
#03852:0063
#03858:0063
#04358:0000000000000053
#04352:0000005300000000
#0445b:0053
#05055:00230000
#0505b:00230000
#06158:54
#06154:54
#06152:0014
#0615a:0014
#06355:00000063
#05452:00140000
#0545a:00140000
#0565a:00140000
#05652:00140000
#0585a:00140000
#05852:00140000
#0425b:0013000000000000
#04852:00530000
#04858:00530000
#004320:14000024
#004340:0000005400000000
#0053b0:1300003333000000
#005380:00000033000000000000000023000000
#0063a0:1400000000240000
#006380:0000003400000000
#007320:1300003333000000
#007350:00000033000000000000000023000000
#008350:0000001300000000
#008320:0023
#0093b0:0000001300000000
#009380:0000000000230000
#010320:0000001300000000
#010350:0023
#0113b0:0000001300000000
#011380:0023
#012380:0000001300000000
#0123b0:0023
#013320:0000001300000000
#013350:0000000000230000
#0143b0:0000001300000000
#014380:0023
#015320:0000001300000000
#015350:00000023
#016380:0000001300000000
#0163b0:0023
#0163b0:0000000000000013
#017380:0023000000000000
#017380:0000001300000000
#0173b0:0023
#0193b0:0013
#019380:00000000000000000000003323000000
#020350:0000001300000000
#020320:0023
#0213b0:0000001300000000
#021380:0023
#022350:0000001300000000
#022320:0023
#023380:13000000003323000000000000000000
#0233b0:00003333000000000000000000000000
#0303b0:0013
#031380:23
#030351:0013
#031321:23
#031351:0000001300000000
#031321:00000023
#033381:0000001300000000
#0333b1:0000000000003323
#0353b1:0000001300000000
#035381:00000023
#037351:0000001300000000
#037321:00000023
#038321:0013
#039351:23
#038380:0013
#0393b0:23
#039380:0000001300000000
#0393b0:00000023
#041350:0000001300000000
#041320:00000023
#043320:0000001300000000
#043350:00000023
#043380:0000000000000013
#0443b0:0023000000000000
#0443b0:0013
#044380:00000023
#045350:0013
#047320:23
#048320:00130000
#048350:00000033
#049350:23
#048381:00130000
#0483b1:00000033
#0493b1:23
#0503b1:00130000
#050381:00000023
#050350:00130000
#050320:00000023
#052320:00130000
#052350:00000023
#052381:00130000
#0523b1:00000023
#0603a1:0014
#061381:34
#0613a1:0024
#060320:0014
#061340:34
#061320:0024
#062380:00000013
#0633b0:33230000
#063350:00000013
#064320:33230000
