This file was generated by Ched 2.7.0.0.
#TITLE ""
#ARTIST ""
#DESIGNER ""
#DIFFICULTY 0
#PLAYLEVEL
#SONGID ""
#WAVE ""
#WAVEOFFSET 0
#JACKET ""
#REQUEST "ticks_per_beat 480"
#00002: 4
#BPM01: 170
#BPM02: 160
#BPM03: 140
#BPM04: 68.75
#BPM05: 133
#BPM06: 183
#06708: 0001
#06808: 00000203
#00008: 04
#06908: 05
#02308: 0006
#TIL00: ""
#VOLUME: ""
#HISPEED 00
#MEASUREHS 00
#0331b:0013001300000013
#03317:13130000
#03316:0000001300000000
#03312:0000130000001313
#0491c:12120012
#04916:1414130000000000
#04912:0012000000000000
#0491a:0000000000000012
#04918:0026
#05312:1224
#05316:0000141400000000
#0531c:12
#0531a:0000000024001212
#05314:00000014
#05310:0041
#0071a:14000000000000000000000000000012
#0071c:00121200
#00712:14000000000000000000001200000000
#00714:0000001200001200
#00718:00001212000000000000000000001200
#00716:0000000000120012000000000000120000000000000000000000120000000000
#0081a:00001212120000001200000000000000
#00812:12
#00816:0000000000120012000000000000120000000000120000001200000000000000
#00814:0012
#00818:0000001200000000
#0081c:2200000000120000
#00810:41
#00914:00000012
#0091a:0000000012000012
#00918:0000000000120012000000000000120000000000000000001200000000000000
#00916:1200001200120012
#00912:00001212120000000000120000000000
#0091c:12
#0111c:12000000000012000000001200000000
#0111a:00000000000000120000120012000000
#01118:0000000000120012000000000000000012000000000000000000120000000000
#01116:1212001200120012
#01114:00000012000000000000000000000012
#01112:00120000
#01612:2200120012000012
#01618:2600120000120000
#01616:0000001200001200
#0161c:0000000000000012
#0161a:0012000012001200
#01614:0012000000120000
#01610:41
#01716:12000000120000000012000000001212
#01718:0000000000000000000000001200000000000000120000000000000000120012
#0171a:00000000000000000000001200000000
#0171c:0012120000000000
#01712:0000001200000000
#01714:00001212
#01912:12121200
#01916:0000001200000012
#0191c:0012120012000000
#0191a:0000000000120000
#01918:00000000000000000000000012000012
#0311b:0000131300001300
#03118:1313000000000000
#03112:0000001300000000
#03115:00130000
#03117:00000000000000000013000000000000
#05012:33130000
#05018:12260012
#05616:0014000000001400
#0561c:0000000000121200
#0561a:14240000
#05612:00240000
#0591c:00000012
#05916:00002414
#05912:1322
#0591b:13130000
#06012:1212
#0601c:00120012
#06016:14140000
#06015:00002626
#06418:12000012
#06412:12
#06416:00120000
#0641c:00120000
#06518:12120012
#06514:001200000000
#06516:001200000000120000000000
#06512:00120012
#0661c:12
#06616:12000012
#06618:00120000
#06612:00120000
#06718:1213
#0671b:00000013
#06712:1213
#06716:00120000
#0671c:00120000
#06818:13
#06815:00130000
#0681b:0013
#0681a:00000014
#06812:00002324
#00416:00001212000000000012000012000000
#00412:2400120000120000
#0041c:0000001200001212
#0041a:24000000000000001200000000000012
#00414:0012
#00418:0000000000120012000000000000120000000000000000000000000000000000
#00514:00000000000012000000001200000000
#00518:12001212000000001200000000001200
#00516:0000000000120012000000000000000000000000000000001200000000001200
#0051c:00120000
#00512:0000000012120000
#0051a:00000000000000000000000000120000
#0061c:0000001200001200
#00616:00001212000012000000120000000012
#00618:0000000000120012000000000000000000000000000000000000000012000000
#00612:24121200
#00614:00000000000000120000000032000000
#0061a:24000000000000000000000000120000
#01018:0012001200000000
#01012:1200001200120000
#01016:0000000000120012000000000000000012000000000000000000000000000000
#0101a:00000012000000000000000000000000
#0101c:1200120000121200
#01014:00000000000000120000000000000000
#01812:00121200
#0181c:00001212
#01818:0012120000120000
#01816:1200001200000012
#0181a:24
#02316:0012000000000000
#0231c:00000012000000000000000000000000
#02315:0000000023130000
#02318:00000000001200000013000026000013
#02312:1200002200000023
#0231a:0000002400000000
#0301b:13000013
#03015:0023
#03012:002c2c0000000000
#03018:0026
#0301f:0021
#03212:1313
#03216:00000013
#0321b:00130013
#03214:0000001300000000
#03210:41
#03417:00130013
#03415:1313000000000000
#03418:00130000000000000000000000000000
#03412:00130013
#03416:0013
#04716:1400141400000000
#0471b:0013
#04718:0000000000130013
#0471c:1200001200000000
#04715:0000000000130000
#04712:0000120023000013
#0481c:1212000000000000
#0481b:00000013
#04816:1414000000000000
#04812:00230000
#04818:00260000
#0511c:1212000000000000
#0511a:00122400
#05114:0000000000001212
#05118:0000001200001400
#05112:0024
#0521b:00130000
#05218:16000000000000130000000000000000
#05219:00000012
#05215:00000000000000130000000012000000
#05212:12230000
#05716:1400141400000000
#05714:0000000000001212
#05718:00000014
#05712:1224
#0571c:00120000
#0571a:0024
#06216:12120000
#06218:00000012
#0621c:12120000
#06316:12000012
#0631c:12
#06312:00120000
#06318:00120000
#06919:15
#06918:00160000
#06912:25260000
#01518:12001200000012000012000000120000
#01512:1200001200121200
#0151a:00000012000000000000120012000000
#01516:0000000000120012000000000000000012000000000000000000000012000000
#01514:00000000000000120000000000000012
#0151c:00120000
#02018:0012001200120000
#02012:1212
#0201a:24000012
#02016:0000001200000012
#02014:00120012
#0201c:00120000
#02010:41
#02116:0012001200000012
#02118:12121212
#0211c:0000001200120012
#02112:00121212
#02114:12
#02412:1300000000231300
#02415:0000231300000000
#02418:00002600001300002600001300002600
#02515:23001300000000000013000000000013
#02518:00130000260000002300130000000000
#02512:0000002600002600
#0251b:0000000000000023
#0261b:1300000000231300
#02618:0000231300000000
#02615:00000000001300000000001300000000
#02612:0026000026000026
#02718:23001300000000000013000000000013
#02715:00130000000029002300130029000000
#02712:0000290000000023
#02812:1300000000231300
#02815:0029231329000029
#02818:00000000001300000000001300000000
#02915:23001300290000000013000000000013
#02918:00130000000000002300130000000000
#02912:0000002900002c00
#0291b:0000000000000023
#0351b:1300001300000000
#03512:0013130000001300
#03516:00000000000013000013000000000000
#03712:1300001300000000
#03715:0013000000000000
#03718:00130000
#03719:0000000000132500
#0371b:0013002300000000
#0361b:1313
#03617:00000013
#03612:00130013
#03619:0000001300000000
#03815:0013000000000000
#03818:00000000001300132300000000000000
#03812:2600261326001300
#0381b:00130013000000000000000000000000
#04312:1300001300000000
#04319:0013000000000000
#0431b:0000130000001313
#04317:0000001300000000
#04316:0000000000000013
#0421b:00000013
#04216:00000013
#04218:1313000000000000
#04215:00130000000000000000000000000000
#04217:0023
#04212:00242500
#0421a:00240000
#04416:0000001300130000
#04417:0000000023000013
#04412:0013000023000000
#0441b:0000001300002300
#04516:001400001400000000000000
#04512:241400240000
#0451a:000000000000240000001400000000000000120000120000
#04514:00000014
#04612:1600240000121200
#04616:00000014
#0461c:12
#0461a:00240000
#05516:1400141400140014
#0551c:1200001200000000
#0551a:0014
#05512:00122414
#05412:1600240000121200
#05416:00000014
#0541c:12
#0541a:00240000
#05818:16000000000000000000000000000013
#05812:12240016
#05815:0000000000000013
#0581c:00000012
#0581a:00240000
#06112:121c
#0611c:00120000
#06114:28280000
#01214:00001212120000001200000000000000
#0121c:12
#01218:0000000000120012000000000000120000000000120000001200000000000000
#0121a:0012
#01216:0000001200000000
#01212:2200000000120000
#01210:41
#0131a:00000012
#01314:0000000012000012
#01316:0000000000120012000000000000120000000000000000001200000000000000
#01318:1200001200120012
#0131c:00001212120000000000120000000000
#01312:12
#01416:0012001200000000
#0141c:1200001200120000
#01418:0000000000120012000000000000000012000000000000000000000000000000
#01414:00000012000000000000000000000000
#01412:1200120000121200
#0141a:00000000000000120000000000000000
#02216:0012001200120012
#0221c:1212
#02214:00000012
#0221a:00120012
#02212:24120000
#02218:0000001200000000
#0221f:0011
#04112:0013001300000013
#04116:13130000
#04117:0000001300000000
#0411b:0000130000001313
#03912:0000131300001300
#03915:1313000000000000
#0391b:0000001300000000
#03918:00130000
#03916:00000000000000000013000000000000
#0401b:1313
#04017:00000013
#04012:00130013
#04019:0000001300000000
#00314:00000000000000000000000000120000
#00316:0000000000000012
#00318:00000000000000000000000000000012
#0335b:0000005300000013
#03357:13
#04956:00530000
#04958:0046
#01658:46620000
#0165c:0000001200000062
#01656:0000001200000000
#01758:0000005200000000
#01756:52
#01952:5252
#0195c:00620000
#01956:00000012
#01958:00000012
#05052:00230000
#05058:00460000
#00456:00000062
#0075c:0062
#0065c:0000005200000000
#00656:0000000000520000
#00852:62
#0085c:0000000000520000
#00856:00000052
#01058:0000006200000000
#01052:6200000000620000
#0105c:00000062
#01852:0052
#0185c:00000062
#01856:62
#01858:00520000
#03152:0000005300000000
#0315b:0000001300005300
#03157:00000000000000000023000000000000
#03252:6363
#03256:00000023
#0325b:00530000
#03457:00530000
#03452:00000023
#0345b:0013
#03456:0053
#0475b:0063
#04755:0000000000230000
#04758:0000000000230000
#04752:0053
#0525b:00630000
#05258:00000000000000230000000000000000
#05255:00000000000000230000000000000000
#05252:00530000
#06256:00520000
#06358:00520000
#06456:00520000
#06558:00520000
#06658:00620000
#01156:0000005200000000
#0115c:52
#02058:0000006200000000
#02052:62
#02156:0000005200000000
#02158:52
#02152:0022
#0355b:5300006300000000
#03552:00000063
#03556:00000000000013000023000000000000
#03752:0000006300000000
#0375b:0000004300000000
#03759:00000045
#0365b:5353
#03657:00000023
#03652:00630000
#04352:6300005300000000
#0435b:0000000000000063
#04357:0000001300000000
#04356:0000000000000013
#0425b:00000023
#04257:0063
#04252:00343500
#0425a:00440000
#05556:0000000000240024
#05552:00003454
#0555a:0054
#05952:5312
#05956:0014
#03055:0053
#03052:003c4c0000000000
#03058:0046
#05352:0034
#0535a:0044
#05652:00340000
#0565a:00440000
#0235a:0000004400000000
#02358:00000046
#05152:0034
#0515a:0044
#0575a:0044
#05752:0034
#0585a:00440000
#05852:00340000
#02458:0046000046000046
#02558:00460000
#02552:0000003600003600
#02652:0036000036000036
#02752:00390000
#02755:0000004900004900
#02855:0049000049000049
#02955:00490000
#02952:0000003900003c00
#04452:0013000053000000
#0445b:00000053
#04456:0000000000230000
#04457:0013000000000023
#04552:3434
#0455a:00440000
#04652:00340000
#0465a:00440000
#04858:00460000
#05452:00340000
#0545a:00440000
#06055:00001616
#06154:18180000
#06152:001c
#06852:00003334
#06952:35360000
#00558:0052
#0095c:52
#0125c:52
#01252:0000000000620000
#01258:00000062
#01456:0000005200000000
#0145c:5200000000520000
#01452:00000052
#01558:0000006200000000
#01552:62
#01352:62
#02256:0000005200000000
#0225c:52
#04152:0000006300000013
#04156:13
#0395b:0000006300000000
#03952:0000001300006300
#03956:00000000000000000023000000000000
#0405b:5353
#04057:00000023
#04052:00630000
#03858:0063
#03852:0036
#004360:00000012
#005320:22
#005380:0012
#0053c0:00000022
#0063c0:0000001200000000
#006380:0000000000220000
#006361:0000000000120000
#006341:00000032
#006321:0000000000000022
#0073c1:0012
#007381:00000022
#008321:12
#008361:0022000000000000
#0083c1:0000000000120000
#008381:0000000000000022
#008360:00000012
#008320:0000000000000022
#0093c0:12
#009380:0022000000000000
#010320:12
#010360:0022000000000000
#010380:0000001200000000
#0103c0:0022
#010320:0000000000120000
#010360:0000000000000022
#0103c1:00000012
#010381:0000000000000022
#0113c1:12
#011381:0022000000000000
#011361:0000001200000000
#011321:0022
#0123c1:12
#012381:0022000000000000
#012321:0000000000120000
#012361:0000000000000022
#012380:00000012
#0123c0:0000000000000022
#013320:12
#013360:0022000000000000
#0143c0:12
#014380:0022000000000000
#014360:0000001200000000
#014320:0022
#0143c0:0000000000120000
#014380:0000000000000022
#014321:00000012
#014361:0000000000000022
#015321:12
#015361:0022000000000000
#015381:0000001200000000
#0153c1:0022
#016381:00120000
#0163c1:0000002200000000
#0163c1:0000000000000012
#017381:22
#017360:12
#017320:0022000000000000
#017380:0000001200000000
#0173c0:00000000000000003222000000000000
#018360:12
#018320:0022000000000000
#018380:00120000
#0183c0:0000002200000000
#018320:0012
#018360:0000000000322200
#0183c1:00000012
#018381:0000000000000032
#019381:22
#019320:12
#019360:0022000000000000
#0193c0:00120000
#019380:0000002200000000
#019320:0012
#019360:00000022
#020320:12
#020360:0022000000000000
#020380:0000001200000000
#0203c0:0022
#021380:12
#0213c0:0022000000000000
#021360:0000001200220000
#021320:0052
#0223c0:12
#022380:0022000000000000
#022360:0000001200000000
#022320:0022
#0233a0:1222000000000000
#023340:00000012002200000000000000000000
#030350:0013
#031320:23
#031320:0000001300002300
#031370:00000000000000000053000000000000
#0313b1:00000013
#032371:23
#032320:13
#032360:00230000
#0323b1:00130000
#032371:0023
#032320:0013
#032360:00000033
#033320:23
#0333b0:0000001300000000
#033370:00000023
#034370:00130000
#0343b0:0023
#034361:0013
#034321:00000033
#035361:23
#0353b0:13
#035370:00230000
#0353b0:0000001300002300
#035360:00000000000000000053000000000000
#035321:00000013
#036361:23
#0363b0:13
#036370:00230000
#036321:00130000
#036361:0023
#0363b0:0013
#036370:00000033
#0373b0:23
#037320:0000001300000000
#037360:00000023
#038380:0013
#0393b0:23
#0393b0:0000001300002300
#039360:00000000000000000053000000000000
#039321:00000013
#040361:23
#0403b0:13
#040370:00230000
#040321:00130000
#040361:0023
#0403b0:0013
#040370:00000033
#0413b0:23
#041320:0000001300000000
#041360:00000023
#042370:0013
#0423b0:00000033
#043370:23
#043321:13
#043361:00230000
#043321:0000001300000000
#043361:00000023
#0433b1:0000000000000013
#044371:0023000000000000
#044321:00001323
#044361:0000000000530000
#0443b0:00000013
#044370:0000000000000053
#0453b0:23
#047320:00001323
#047350:0000000000530000
#0473b1:00001323
#047381:0000000000530000
#048321:00130029
#049361:00130000
#050321:33330000
#051361:00230000
#052321:0000130000230000
#052351:00000000000000530000000000000000
#0523b0:0000130000230000
#052380:00000000000000530000000000000000
#0553a0:00001424
#055360:0000000000540000
#055321:00000014
#055361:0000000000000034
#056321:24
#059321:13
#059361:00230000
#062361:00120000
#062321:00000022
#063381:00120000
#0633c1:00000022
#064361:00120000
#064321:00000022
#065381:00120000
#0653c1:0022
#066381:00120000
#0663c1:00000022
