This file was generated by Ched 2.7.0.0.
#TITLE ""
#ARTIST ""
#DESIGNER ""
#DIFFICULTY 0
#PLAYLEVEL
#SONGID ""
#WAVE ""
#WAVEOFFSET 0
#JACKET ""
#REQUEST "ticks_per_beat 480"
#00002: 4
#BPM01: 170
#BPM02: 160
#BPM03: 140
#BPM04: 68.75
#BPM05: 133
#BPM06: 183
#06708: 0001
#06808: 00000203
#00008: 04
#06908: 05
#02308: 0006
#TIL00: ""
#VOLUME: ""
#HISPEED 00
#MEASUREHS 00
#0201a:14140000
#02014:00001414
#02010:41
#02118:14140000
#02112:00001414
#0221a:14140000
#02214:00001414
#0221f:0011
#0311a:14
#03112:0014
#03118:00000014
#03214:0014
#03212:14
#03218:00140000
#03210:41
#0331a:14
#03314:0014
#0591a:0014
#05914:00000014
#06018:14
#0601a:0014
#06012:00140000
#00418:14
#0041a:00000014
#00514:14
#00512:00000014
#00618:14
#0061a:00000014
#00714:14
#00712:00000014
#00912:00140014
#00918:1414
#00814:00140014
#0081a:1414
#00810:41
#01112:00140014
#01118:1414
#01014:00140014
#0101a:1414
#01312:14001414
#01318:00140000
#0121a:14001414
#01214:00140000
#01210:41
#01512:14001414
#01518:00140000
#0141a:14001414
#01414:00140000
#01618:14000014
#0161a:00140000
#01610:41
#01714:14000014
#01712:00140000
#02312:0014
#0231a:24
#02314:0000000000000034
#0251a:0014
#02514:34
#02518:0000000000000034
#02712:0014
#02718:34
#02714:0000000000000034
#0291a:0014
#02914:34
#02918:0000000000000034
#03512:14
#0351a:0014
#03514:00000014
#0361a:1414
#03614:00140000
#03712:0014
#03912:14
#0391a:0014
#03914:00000014
#04018:0014
#0401a:14
#04014:00140000
#04112:14
#04118:0014
#0431a:14
#04312:0014
#04318:00000014
#04412:1414
#04418:00140000
#03418:0014
#04518:0014
#04718:00000014
#04712:0014
#0481a:00140000
#04814:14
#04918:14
#04914:0014
#0531a:0014
#05314:14
#05310:0041
#05712:0014
#05718:14
#06112:14
#0611a:0024
#06614:00140000
#01818:14000014
#0181a:00140000
#01914:14000014
#01912:00140000
#05114:00000014
#0511a:0014
#05212:00140000
#05218:14
#05518:00000014
#05512:0014
#0561a:00140000
#05614:14
#03012:0026
#0301f:0021
#03818:0026
#04212:0026
#02414:0000340000340000
#02618:0000340000340000
#02814:0000340000340000
#0461a:00340000
#05418:00340000
#05012:00340000
#05814:00340000
#00458:54
#00554:54
#00658:54
#00754:54
#01658:54
#0165a:00240000
#01754:64
#01752:00240000
#02352:0054
#0235a:14
#0255a:0064
#02752:0054
#0295a:0064
#03354:0054
#0365a:0054
#03752:0064
#04158:0064
#04452:0064
#04558:0064
#0535a:0054
#04954:0054
#05752:0064
#03858:0016
#0615a:0014
#01858:54
#0185a:00240000
#01954:64
#01952:00240000
#04252:0016
#004380:14
#0043a0:0024
#005340:14
#005320:0024
#006380:14
#0063a0:0024
#007340:14
#007320:0024
#016380:1424
#0163a0:00540000
#017340:1424
#017320:00540000
#018380:1424
#0183a0:00540000
#019340:1424
#019320:00540000
#023320:0014
#023340:0000000000000034
#024340:0000340000340000
#025340:34240000
#0253a0:0014
#025380:0000000000000034
#026380:0000340000340000
#027380:34240000
#027320:0014
#027340:0000000000000034
#028340:0000340000340000
#029340:34240000
#0293a0:0014
#029380:0000000000000034
#030380:00240000
#033340:0014
#034320:24
#0363a0:0014
#037380:24
#037320:0014
#038340:24
#041380:0014
#0423a0:24
#044320:0014
#045340:24
#045380:0014
#0463a0:00340000
#0473a0:24
#049340:0014
#050320:00340000
#051320:24
#0533a0:0014
#054380:00340000
#055380:24
#057320:0014
#058340:00340000
#059340:24
#062320:00140000
#063340:0024
#0643a0:00140000
#065380:0024
#067320:0014
#068320:00003434
#069320:34240000
