This file was generated by Ched 2.7.0.0.
#TITLE ""
#ARTIST ""
#DESIGNER ""
#DIFFICULTY 0
#PLAYLEVEL
#SONGID ""
#WAVE ""
#WAVEOFFSET 0
#JACKET ""
#REQUEST "ticks_per_beat 480"
#00002: 4
#BPM01: 190
#00008: 01
#TIL00: ""
#HISPEED 00
#MEASUREHS 00
#00614:14
#00718:14
#00812:14
#01814:14
#02012:14
#02212:14
#0231a:14
#02314:0014
#02412:0014
#02418:14
#03018:14
#03114:14
#03712:16
#03818:16
#03912:16
#04018:16
#04512:14
#04518:0014
#04614:14
#0461a:0014
#05114:14
#05110:41
#05218:14
#05312:14
#0541a:14
#05514:14
#05518:0014
#06812:14
#0691a:14
#07014:14
#07118:14
#07918:16
#08018:16
#09312:14
#0941a:14
#0971a:14
#09812:14
#0051a:14
#0171a:14
#01918:14
#01910:41
#0211a:14
#02912:14
#02910:41
#0321a:14
#0601f:11
#0491a:24
#07712:26
#0771f:21
#08512:26
#08618:26
#08712:26
#08818:26
#07810:41
#00910:41
#04110:41
#0013a0:14
#0023a0:24
#003320:14
#004320:24
#0093a0:14
#0103a0:24
#011320:14
#012320:24
#013380:14
#014380:24
#015340:14
#016340:24
#0253a0:14
#0263a0:34
#0273a0:34
#0283a0:24
#033320:16
#034320:26
#035380:1636
#036380:26
#041320:1636
#042320:3626
#043380:1636
#044380:3626
#047320:14
#048320:24
#0493a0:14
#0503a0:24
#056340:14
#057320:24
#0583a0:1434
#0593a0:3424
#060340:14
#061340:34
#062340:34
#063340:24
#064380:14
#065380:34
#066380:34
#067380:24
#072320:1434
#073320:3434
#074320:24
#075380:16
#076380:26
#081320:16
#082320:26
#083380:16
#084380:26
#089320:16
#090320:26
#091380:16
#092380:26
#095320:14
#096320:24
#0993a0:14
#1003a0:3424
