This file was generated by Ched 2.7.0.0.
#TITLE ""
#ARTIST ""
#DESIGNER ""
#DIFFICULTY 0
#PLAYLEVEL
#SONGID ""
#WAVE ""
#WAVEOFFSET 0
#JACKET ""
#REQUEST "ticks_per_beat 480"
#00002: 4
#BPM01: 190
#00008: 01
#TIL00: ""
#HISPEED 00
#MEASUREHS 00
#00018:0013
#00015:00000013
#00117:13
#00119:00130013
#0011b:0013
#00112:13
#00116:0013
#00214:00130013
#00216:0013
#00217:13
#0021b:0013
#00312:130000000000000000000013
#0031b:000000130013000000000000
#00316:000000000013000000130000
#00317:000000000000001300000013
#0041b:0013
#00418:00000012
#00516:120012
#00512:000000000012000000000012
#0051c:12
#00518:000000000000000000000012
#00812:000000000012000000130000
#00817:00000013
#00814:001200000000
#0081a:001200000000
#00818:000000000012000000000000
#0091b:1313
#00917:00130000
#00912:000000130000000013000000
#00918:00000013
#00915:000000000000000000000013
#00916:13
#00910:41
#0101b:130000000000130000000013
#01012:001300001300
#01018:00130000
#01015:000000000013000000000000
#01017:000013
#0111b:13
#01112:001300001300
#01117:000000130000000013000000
#01114:001300
#01119:000000000013000000000000
#01116:0013
#01115:000000000000000000000013
#0121b:130000000000000000000013
#01214:001300000000000000000000
#0121a:001300000000
#01213:00130000
#01212:000000000013000013000000
#01219:001300
#01218:0013
#0131b:130000000000001300000000000000001300000000000000
#01312:000013000013000000000013
#01315:00000013
#01318:000000000013
#01317:001300000000
#0141b:130000000013000000000000
#01412:00130000
#01416:000000000000130000000013
#01417:000013
#01516:131300
#0151b:000000130000000000000013
#01519:000000000013000000000000
#01514:0013
#01517:000000000000001300000000
#01512:000013
#0161b:130000000013000000000000
#01612:001300000000
#01617:00130000
#01616:0013
#01717:000000000013000000000000
#01718:000013
#01715:00000013
#01712:230000000013000000000000
#0171b:23
#0181b:130000001300000000000000000000000013000000000000
#01818:000000000013000000000000
#01812:001300000000000000000000
#01917:00130000
#01916:000000000013000000000000
#01915:230013
#01918:23000013
#0191b:000000000013000000000000
#01912:00130000
#01910:41
#02118:13
#02118:13
#02112:000000000013000000130000
#02117:000013
#02115:23
#0221b:130000000013000000000000
#02217:000000130000000013000000
#02216:000000000013000000000000
#02212:00130013
#0231b:13
#02317:000000130013000000000000
#02316:13
#02312:000000130013000000000000
#02412:0013
#02415:13000013
#0241b:001300000000000000000000
#02414:001300000000
#0241a:00130000
#02413:001300
#02419:000000000013000000000000
#02518:13
#02516:000000000013000000000000
#02517:00000013
#02916:001300001300
#02917:000000000013000000000013
#02912:2323
#0291b:23230023
#02910:41
#03016:001300001300
#03017:000000000013000000000000
#03012:2323
#0301b:00230023
#03212:0013
#03215:00000013
#03318:13
#03312:000000130013000000000013
#0331b:000000001300000000000023
#03315:230023
#03418:00131300
#0341b:00000013
#03415:0023
#0351b:000000130000000013000000
#03512:000000000013000000000023
#03515:23
#03516:000000230000000023000000
#03517:000000000023000000000023
#03618:00000013
#03715:13
#0371b:000000130013000000000000
#0371a:000013
#03718:130000000000000000000013
#03712:000000000000000000000013000000000000000000000000
#03818:0013
#03815:00000013
#03812:00130000
#04419:00000013
#04414:00000013
#04616:1313
#04617:00130013
#0461b:2323
#04612:00230023
#04715:130000000000000000000013
#0471b:000000130000000013000000
#04712:000000000013000000000000000000000000130000000000
#04718:230000000013000000000000
#0481b:0013
#04817:00000013
#05112:13
#05119:00130000
#05116:000000000013000000000000
#05114:00000013
#0511b:0013
#05117:000000000000000000000013
#05110:41
#05416:00130013
#05412:130000000013000000000000
#0541b:001300001300
#05417:000000000000130000000013
#05812:000000130013000000000000
#05817:000013230000
#05816:000000000000000000130013
#0581b:000000000013
#07218:12120012
#07216:0012
#07212:00120012
#0721c:0012
#0731b:1313
#07318:001313001313
#07315:001300000013001300000013
#07312:00130013
#07417:000000130013
#0741b:230013
#07412:000000130013
#07416:000013
#07717:000000130013000000000023
#0771b:130013
#07712:000000000000000000000013
#07716:230023
#0771f:21
#07817:0013
#07816:000000000013000000000000000000000000000000000000
#0781b:00130013
#07810:41
#0801b:0013
#08018:00000013
#08115:13
#08112:000000130013000000000013
#0811b:130013
#08117:000000000000000000000013
#08116:000013
#0881b:0013
#08819:00000013
#08816:0013
#08814:00000013
#09312:12
#0931c:00120000
#0931a:0012
#09318:12000012
#09314:0012
#09416:12
#09418:0012000000000000
#0941a:00120000
#0941b:0012
#0941c:00000012
#09412:00120000
#0951c:1200121200000000
#0951a:0000000000120000
#09519:00000012
#09517:0012000000000000
#09617:12
#09612:12
#02612:1c
#02617:0012
#02712:1c
#02717:0012
#02814:18
#02012:130000001300000000000000000000000013000000000000
#02015:000000000013000000000000
#0201b:001300000000000000000000
#03918:13
#03912:000000130013000000000000
#03913:000013
#03915:130000000000000000000013
#0391b:000000000000000000000013000000000000000000000000
#0401b:00131300
#04018:00000013
#04015:0013
#04115:13
#0411b:000000130013000000000013
#04112:000000001300000000000023
#04118:230023
#04110:41
#04215:00131300
#04212:00000013
#04218:0023
#04312:000000130000000013000000
#0431b:000000000013000000000023
#04318:23
#04317:000000230000000023000000
#04316:000000000023000000000023
#0491b:1313131313131313
#0491a:00130013001300130013001300130013
#04912:1313131313131313
#04913:00130013001300130013001300130013
#0501b:00130013
#05012:00130000
#05018:0013
#05015:000013
#05017:000000000000000000000013
#05212:13
#05219:00130000
#05216:000000000013000000000000
#05214:00000013
#0521b:0013
#05312:13
#05319:00130000
#05314:00000013
#0531b:0013
#05617:13
#0561b:000000000033130033000000
#05612:13
#05616:000000000033130033000000
#05914:0012
#05916:00000012
#0591b:23
#06018:12
#06012:0012
#0601f:11
#06112:12
#0611c:0012
#06212:0012
#0621c:12
#06316:12
#0631c:0012
#0631a:00000012
#06418:12
#0641c:0012
#06416:0012
#06512:12
#06516:0012
#0651c:0012
#0661c:12
#06618:0012
#06612:0012
#06716:12
#06714:00120000
#06712:0012
#0671c:0012
#0671a:00000012
#06818:12
#06816:12
#06814:00120000
#06812:0012
#0681a:00000012
#06918:12
#0691c:0012
#06914:00120012
#06912:0012
#07016:12
#0701a:00120000
#0701c:0012
#07014:00000012
#07116:12
#07112:0012
#0711a:00120012
#0711c:0012
#07517:0013
#07512:0013
#0751b:23
#07516:23
#0761b:1313131300000000
#0761a:00130013001300130000000000000000
#07612:00000013
#07616:0023
#07617:00000023
#07912:230013
#07916:000000230023000000000023
#07917:000023
#0791b:000000000000000000000023
#0821b:00130000
#08212:0013
#08215:00000013
#08318:13
#0831b:000000130013000000000013
#08312:130013
#08316:000000000000000000000013
#08317:000013
#08412:00131300
#0841b:00000013
#08417:0023
#08416:00000023
#09017:1313
#09016:00130013
#09012:2323
#0901b:00230023
#09118:130000000000000000000013
#09112:000000130000000013000000
#0911b:000000000013000000000000000000000000130000000000
#09115:230000000013000000000000
#09212:0013
#0971c:12
#09712:00120000
#09714:0012
#09716:12000012
#0971a:0012
#09818:12
#09816:0012000000000000
#09814:00120000
#09813:0012
#09812:00000012
#0981c:00120000
#09912:1200121200000000
#09914:0000000000120000
#09915:00000012
#09917:0012000000000000
#10017:12
#1001c:12
#08516:000000130013000000000023
#08512:130013
#0851b:000000000000000000000013
#08517:230023
#08616:0013
#08617:000000000013000000000000000000000000000000000000
#08612:00130013
#0871b:230013
#08717:000000230023000000000023
#08716:000023
#08712:000000000000000000000023
#05716:000000000013000000000000
#05717:000013
#05712:000013
#0061a:001200000000
#0061c:000000000012000000000000
#00614:001200000000
#00616:000000000012000000120000
#00718:120012
#0071c:000000000012000000000012
#00712:12
#00716:000000000000000000000012
#03118:0000001300000000
#03115:0000001300000000
#0311b:230000000033000000000000
#03112:230000000033000000000000
#04516:23
#04512:00230000
#0451b:0023
#04517:00000023
#05512:23
#05517:23
#05514:00230000
#05519:00230000
#0551b:0023
#05516:0023
#08917:23
#0891b:00230000
#08912:0023
#08916:00000023
#00152:63
#00156:0023
#00257:63
#0025b:0023
#00352:530000000000000000000053
#0035b:000000000053000000000000
#00357:000000000000002300000000
#00852:00000053
#00956:53
#00952:00530000
#01157:000053
#0115b:53
#01052:000053
#01057:000013
#01252:000053
#01258:0053
#01357:006300000000
#0135b:000000000000002300000000000000000000000000000000
#0145b:53
#01452:000000530000000013000000
#01456:0053
#01457:000053
#01552:000053
#01656:0053
#01752:13
#0175b:13
#01755:00000053
#02652:5c
#02657:0022
#02752:5c
#02757:0022
#02854:58
#01852:002300000000000000000000
#0185b:000000000000000000000000000000000023000000000000
#01858:000000000053000000000000
#01958:13000063
#01955:13
#02055:000000000063000000000000
#0205b:002300000000000000000000
#02052:000000000000000000000000000000000023000000000000
#02158:53
#02152:00000053
#02155:13
#02357:000000000053000000000000
#03052:1313
#0305b:00130013
#0315b:53
#03152:63
#03158:0000002300000000
#03155:0000002300000000
#03358:53
#0335b:002300
#03352:000000000000000000000053
#03355:13
#03458:0053
#0345b:00000023
#03755:53
#03752:000000000000000000000023000000000000000000000000
#03758:000000000000000000000053
#03958:63
#03955:000000000000000000000063
#0395b:000000000000000000000023000000000000000000000000
#03557:000000000000000000000053
#03552:000000000000000000000053
#04155:63
#04152:002300
#0415b:000000000000000000000063
#04158:13
#04255:0063
#04252:00000023
#04356:000000000000000000000063
#0435b:000000000000000000000063
#04755:530000000000000000000053
#04752:000000000023000000000000000000000000000000000000
#04758:000000000053000000000000
#0475b:000023
#0485b:0053
#04857:00000023
#0495b:5353535353535353
#0495a:00530053005300530053005300530053
#04952:6363636363636363
#04953:00630063006300630063006300630063
#05152:13
#0515b:0013
#05252:13
#0525b:0013
#05352:13
#0535b:0013
#05657:53
#0565b:0023
#05652:53
#05656:0023
#0595b:13
#06058:52
#06152:52
#06356:52
#0625c:62
#06458:52
#0645c:0022
#06552:52
#06556:0022
#0665c:62
#06658:0022
#06852:0052
#06858:52
#06958:52
#0695c:0022
#07056:62
#0705c:0062
#07156:62
#07152:0022
#07552:0023
#07557:0023
#07556:53
#0755b:53
#0765b:5353535300000000
#0765a:00530053005300530000000000000000
#07656:13
#07756:13
#07752:000000000000000000000053
#07856:000000000023000000000000000000000000000000000000
#0785b:00000023
#07857:0053
#08152:000000000000000000000053
#0835b:000000000000000000000063
#09158:630000000000000000000063
#0915b:000000000023000000000000000000000000000000000000
#09155:000000000063000000000000
#09152:000023
#09452:00520000
#09557:0022000000000000
#09652:52
#09657:52
#10057:62
#1005c:62
#0985c:00620000
#09957:0022000000000000
#0795b:000000000000000000000053
#07956:000000000000000000000053
#07952:13
#08656:0063
#08657:000000000023000000000000000000000000000000000000
#08652:00000023
#0855b:000000000000000000000063
#08557:13
#08757:000000000000000000000063
#08752:000000000000000000000063
#0875b:13
#05752:000053
#05757:000053
#001320:13
#001360:0053
#002320:23
#002371:13
#0023b1:0053
#003371:23
#003320:13
#003360:00230000
#0033b0:000000000013000000230000
#003370:000000000000005300000000
#003320:000000000000000000000013
#004360:0023
#005380:000000120022000000000000
#007360:000000120022000000000000
#008320:00000013
#008360:000000000000000000000053
#009360:330000000053230000000000
#009320:000053330000000000000000
#010320:000013
#010360:000000000000000000000023
#0113b0:13
#011370:002300000000
#011370:000013
#0113b0:000000000000000000000023
#012380:0013
#0123b0:000023
#012321:000013
#012361:000000000000000000000023
#013371:000013000023000000000000
#0133b1:000000000000005300000000000000000000000000000000
#0143b1:13
#014371:00230000
#014320:00130000
#014360:000000000023000000000000
#014360:0013
#014320:000023
#014371:000013
#0143b1:000000000000000000000023
#015321:000013
#015361:000000000000000000000023
#016361:0013
#017321:23
#017351:00000013
#018321:005300000000000000000000
#018351:000000000023000000000000
#018380:000000000013000000000000
#0183b0:000000000000000000000000000000000053000000000000
#019380:23
#019380:00000013
#0203b0:005300000000000000000000
#020380:000000000023000000000000
#020351:000000000013000000000000
#020321:000000000000000000000000000000000053000000000000
#021351:23
#021380:13
#0213b0:000000000023000000000000
#021320:00000013
#022360:23
#023370:000000000013000000000000
#0243b0:23
#0253b0:000000130023000000000000
#025320:000000000000000013230000
#026320:1c
#026370:0052
#027320:5c
#027370:0052
#028340:58
#028370:00005222
#0313b0:130000000033000000330000
#031380:0000005300000000
#0323b0:23
#031321:130000000033000000330000
#031351:0000005300000000
#032321:23
#033381:130023
#0333b1:005300
#033321:000000000000000000000013
#034351:00230000
#034381:0013
#0343b1:00000053
#035381:23
#035321:000000000000000000000013
#036361:0023
#035370:000000000000000000000013
#0363b0:0023
#037350:130000000000000000000023
#037320:000000000000000000000053000000000000000000000000
#037381:000000000000000000000013
#0383b1:00230000
#039381:130000000000000000000023
#0393b1:000000000000000000000053000000000000000000000000
#039350:000000000000000000000013
#040320:00230000
#041350:130023
#041320:005300
#0413b0:000000000000000000000013
#042380:00230000
#042350:0013
#042320:00000053
#043350:23
#0433b0:000000000000000000000013
#044370:0023
#043361:000000000000000000000013
#044321:0023
#0453b1:13230000
#045321:00001323
#047351:130000000023000000000000
#047321:000000000053000000000000000000000000000000000000
#047380:000000000013000000000023
#0473b0:000053
#047351:000000000000000000000013
#048321:0023
#0483b0:0013
#048370:00000053
#0493b0:3353535353535353
#0493a0:00530053005300530053005300530053
#0503b0:23
#049321:1353535353535353
#049331:00530053005300530053005300530053
#050321:23
#052371:000000000000000000000013
#053371:23
#053361:000000000013230000000000
#053371:000000000000000000000013
#054371:23
#056371:13
#0563b1:000000000033530033000000
#057371:23
#056320:13
#056360:000000000033530033000000
#057320:23
#0573b0:000000130023000000000000
#057370:000013
#0583b0:23
#057321:000013
#058361:23
#060381:12
#0603c1:0052
#0613c1:22
#061320:12
#061360:0052
#062360:22
#0623c1:12
#062381:0052
#063381:22
#063360:12
#063320:0052
#064320:22
#064381:12
#0643c1:0052
#065381:22
#065320:12
#065360:0052
#066320:22
#0663c1:12
#066381:0052
#0673c1:22
#068381:12
#0683c1:0022
#068320:0012
#069360:22
#069381:12
#0693c1:0052
#070381:22
#070360:12
#070320:0022
#0703c1:0012
#071381:22
#071360:12
#071320:0052
#072360:22
#0753b0:13
#075370:0053
#0763b0:3353535323000000
#0763a0:00530053005300530000000000000000
#075361:13
#075321:0053
#076361:23
#077320:000000130023000000000000
#077320:000000000000000000000013
#078360:000000000053000000000000000000000000000000000000
#078320:0023
#078371:0013
#0783b1:00000053
#079371:23
#0793b1:000000130023000000000000
#0793b1:000000000000000000000013
#080371:00230000
#079360:000000000000000000000013
#080320:00230000
#081370:000000130023000000000000
#081320:000000000000000000000013
#082360:00230000
#083360:000000130023000000000000
#0833b0:000000000000000000000013
#084370:00230000
#0853b0:000000130023000000000000
#0853b0:000000000000000000000013
#086370:000000000053000000000000000000000000000000000000
#0863b0:0023
#086361:0013
#086321:00000053
#087361:23
#087321:000000130023000000000000
#087321:000000000000000000000013
#088361:00230000
#087370:000000000000000000000013
#0883b0:00230000
#089320:13230000
#0893b0:00001323
#091380:130000000023000000000000
#0913b0:000000000053000000000000000000000000000000000000
#091351:000000000013000000000023
#091321:000053
#091380:000000000000000000000013
#0923b0:0023
#094320:00120000
#095370:0052000000000000
#096320:32
#096370:0022
#096371:12
#0963c1:0022
#0983c1:00120000
#099371:0052000000000000
#1003c1:32
#100371:0022
#100370:12
#100320:0022
