This file was generated by Ched 2.7.0.0.
#TITLE ""
#ARTIST ""
#DESIGNER ""
#DIFFICULTY 0
#PLAYLEVEL
#SONGID ""
#WAVE ""
#WAVEOFFSET 0
#JACKET ""
#REQUEST "ticks_per_beat 480"
#00002: 4
#BPM01: 190
#00008: 01
#TIL00: ""
#HISPEED 00
#MEASUREHS 00
#00018:0013
#00015:00000013
#00112:13
#00115:00130000
#00118:0013
#0011b:00000013
#00215:13000013
#0021b:00130000
#00218:0013
#00516:12
#00514:000012
#0051a:000000000000000000000012
#01215:000000000000000000000013
#0121b:331333333333000000000000
#01318:13
#01312:001300000000
#0131b:000000000000000013333333
#01515:130000000000000000000013
#01518:00130000
#0151b:000000003333333300000000
#0161b:1313
#01612:001300000000
#01618:00130000
#01615:000000000013000000000000
#01712:000000000013000000000000
#01718:230013
#01715:00000013
#01815:000000000013000000000000
#02115:000000000013000000130000
#02118:000013
#0211b:23
#02215:000013
#02218:00000013
#02312:130000000013000000000000
#02315:00130000
#02318:130000000013000000000000
#0231b:00130000
#02415:00000013
#02412:0013
#02518:13000013
#02515:000013
#03212:0013
#03218:00000013
#03415:0013
#03518:000000230000000013000000
#03515:000000000023000000000023
#03512:000023
#0351b:000000000000000000000023
#03615:00000013
#03715:000013
#03718:130000000000000000000013
#04618:1313
#04615:00130013
#04612:2323
#0461b:00230023
#04712:13
#04715:000000330000000000000013
#04818:0013
#08018:0013
#08012:00000013
#08118:000013
#08112:000000000000000000000013
#0811b:13
#09314:12
#09316:00120000
#0931a:00000012
#09318:0012
#09416:12120000
#09418:0012000000001200
#0941a:0012
#09516:1200000000120000
#09514:00120000
#09518:0000001200000000
#0951a:00000012
#00418:00000012
#02612:1c
#02616:0014
#02712:1c
#02716:0014
#02814:18
#01912:230013
#01910:41
#02018:000000000013000000000000
#03318:000000000000000000000013
#03315:230023
#0401b:0013
#04018:00000013
#04012:0013
#04215:0013
#0411b:000000000000000000000013
#04112:000023
#04115:23
#04110:41
#0541b:00130000
#05617:13
#0561b:000000000033130033000000
#05612:13
#05616:000000000033130033000000
#05914:0012
#05916:00000012
#0591b:23
#06018:12
#0601f:11
#06113:12
#0631b:00000012
#06316:12
#06413:12
#06518:12
#06513:00000012
#0671b:00000012
#06716:12
#06813:12
#06816:00120012
#06819:0012
#0821b:0013
#08215:00000013
#08318:130013
#08315:000000000000000000000013
#00617:001200000000
#00614:000000000012000000000000
#00616:00000012
#00312:000000000000000000000013
#00718:12
#0071a:000012
#00714:000000000000000000000012
#00817:001200000000
#0081a:000000000012000000000000
#00812:00000013
#00915:13
#00910:41
#01012:000000000000000000000013
#01118:000013
#01112:33
#01115:000033333333000000000000
#0111b:000000000000000000000033
#01415:00130000
#01418:000000000000000000000013
#01412:000000000033330000000000
#03818:0013
#03815:00000013
#03915:000013
#03918:000000000000000000000013
#03912:13
#04315:000000230000000013000000
#04318:000000000023000000000023
#0431b:000023
#04312:000000000000000000000023
#04418:00000013
#05015:00001313
#05018:000013
#05118:00130000
#05115:00000013
#05110:41
#05218:00130000
#05212:00000013
#0531b:00130000
#05312:00000013
#05717:13
#0571b:000000000033130033000000
#05712:13
#05716:000000000033130033000000
#0621b:12
#0661b:12
#06916:00120012
#06913:12
#06919:0012
#0701b:12
#07018:00120012
#07015:0012
#07118:00120012
#0711b:12
#07115:0012
#0721b:13
#07218:00130000
#07215:0013
#07212:00000013
#0731b:1313
#07315:1313
#07312:00130013
#07318:00130013
#07414:000000140014
#07418:000014
#0741b:23
#07415:23
#0751a:0014
#07518:24
#0771b:000000000000000000000013
#07712:23
#07715:000023
#0771f:21
#07818:000000000013000000000000000000000000000000000000
#0781b:0013
#07810:41
#08512:000000000000000000000013
#0851b:23
#08518:000023
#08615:000000000013000000000000000000000000000000000000
#08612:0013
#09015:1313
#09018:00130013
#0901b:2323
#09012:00230023
#09115:13
#09112:000000330000000000000013
#0911b:13
#09118:000000330000000000000013
#08815:00000013
#08818:0013
#09616:12
#0971a:12
#09718:00120000
#09714:00000012
#09716:0012
#09818:12120000
#09816:0012000000001200
#09814:0012
#09918:1200000000120000
#0991a:00120000
#09916:0000001200000000
#09914:00000012
#10018:12
#0791b:000013
#07918:230000000023000000000023
#07915:000000230000000023000000
#07912:000000000000000000000023
#08712:000013
#08715:230000000023000000000023
#08718:000000230000000023000000
#0871b:000000000000000000000023
#02912:23
#02915:00230000
#02918:0023
#0291b:23000023
#02910:41
#03012:24
#03018:00240000
#03014:0024
#0301a:00000024
#03112:23
#0311b:23
#03115:000000000033000000000000
#03118:000000000033000000000000
#04512:23
#04515:00230000
#04518:0023
#0451b:00000023
#0551a:24
#05516:00240000
#05512:0024
#07615:0023
#07618:00000023
#08418:0023
#08415:00000023
#0891b:23
#08918:00230000
#08915:0023
#08912:00000023
#05818:000000000000000000003333
#05812:000000003333000000000000
#01352:006300000000
#0135b:000053
#0165b:0053
#01758:13
#02652:5c
#02656:0024
#02752:5c
#02756:0024
#02854:58
#01855:000000000063000000000000
#02058:000000000053000000000000
#02155:00000063
#0215b:13
#03052:14
#03058:00140000
#03054:0014
#0305a:00000014
#03152:63
#0315b:53
#03358:000000000000000000000053
#03355:13
#03455:0053
#03758:000000000000000000000053
#03555:000000000000000000000063
#0355b:000000000000000000000063
#04255:0063
#0415b:000000000000000000000063
#04155:13
#04752:53
#04755:000000000000000000000053
#04858:0053
#05657:53
#0565b:0023
#05652:53
#05656:0023
#06058:52
#06153:52
#07752:13
#0775b:000000000000000000000063
#08152:000000000000000000000053
#08355:000000000000000000000063
#07958:130000000000000000000053
#07952:000000000000000000000053
#00352:000000000000000000000053
#00852:00000053
#00955:53
#0105b:000013
#01052:000000000000000000000053
#01158:000053
#0125b:002300000000000000000000
#01452:000013
#01455:00530000
#01558:00530000
#01952:130063
#02358:000000000053000000000000
#02352:000000000053000000000000
#03958:000000000000000000000053
#04358:000000000000000000000053
#04352:000000000000000000000053
#05055:00000053
#05152:13
#05158:00630000
#0515b:0013
#05155:00000053
#05252:13000063
#05258:00630000
#0525b:0013
#05355:13
#0535b:00530000
#05358:0013
#05352:00000063
#05757:53
#0575b:0023
#05752:53
#05756:0023
#0595b:13
#0625b:62
#06356:62
#06453:52
#06558:52
#0665b:52
#06756:52
#07658:14
#07558:54
#0755a:0024
#07858:000000000023000000000000000000000000000000000000
#0785b:0053
#08552:000000000000000000000053
#0855b:13
#08655:000000000023000000000000000000000000000000000000
#08652:0063
#0875b:000000000000000000000063
#08755:130000000000000000000063
#09155:63
#09152:000000000000000000000063
#0915b:63
#09158:000000000000000000000063
#09656:52
#10058:62
#003320:130000000000000000330033
#003350:000000330033000000000000
#004350:0023
#0053a0:000000120022000000000000
#007340:000000120022000000000000
#008320:00000013
#008350:000000000000000000000053
#009350:33
#009320:000053230000000000000000
#0093b0:0013
#009390:000033
#009380:00000033
#0093a0:000000000000000000000033
#0103b0:330000332300
#010390:003300000000
#010380:00330000
#0103a0:000000000033000000000000
#010320:000000000000000000000013
#011320:33
#011350:000033333333230000000000
#011380:000013
#0113b0:000000000000000000000033
#0123b0:333333333333000000000000
#012380:000000332300
#013320:001300000000
#013350:000000000023000000000000
#0133b0:000000000000000013333333
#014380:23
#014350:00130000
#014320:000000000033330023000000
#015380:00130000
#0153b0:000000003333333323000000
#0163b0:0013
#017380:23
#0183b0:132300000000
#018350:000000000013000000000000
#019320:23
#019380:000000130023000000000000
#019320:000013
#020350:332300000000
#020380:000000000013000000000000
#0213b0:23
#021350:00000013
#022320:23
#0223b0:00130000
#022380:000000000023000000000000
#023320:000000000013000000000000
#024350:23
#023381:000000000013000000000000
#0243b1:23
#0253b1:000000130023000000000000
#026321:1c
#026361:0054
#027321:5c
#027361:0054
#028341:58
#028371:00005222
#031321:13
#031351:000000000033000000330000
#032351:23
#0313b0:13
#031380:000000000033000000330000
#032380:23
#0333b0:000000130023000000000000
#033380:000000000000000000000013
#0343b0:00230000
#034350:0013
#035320:23
#0353b0:000000000000000000000013
#036380:0023
#035351:000000000000000000000013
#036321:0023
#0373b1:000000130023000000000000
#037381:000000000000000000000013
#0383b1:00230000
#0393b1:000000130023000000000000
#039381:000000000000000000000013
#0403b1:00230000
#041381:000000130023000000000000
#0413b1:000000000000000000000013
#042381:00230000
#042351:0013
#043321:23
#043321:000000000000000000000013
#044351:0023
#043380:000000000000000000000013
#0443b0:0023
#047320:13
#047350:000000330033000000330033
#048320:0023
#048381:0013
#0493b1:3353535353535353
#0493a1:00530053005300530053005300530053
#0503b1:23
#050351:00000013
#050321:000000000000000000000033
#051321:23
#051381:00130000
#0513b1:000000000033230000000000
#051351:00000013
#051321:000000000000000000000033
#052321:23
#052381:00130000
#0523b1:000000000033230000000000
#052321:00000013
#052351:000000000000000000000033
#053351:23
#0533b1:00130000
#053381:000000000033230000000000
#053321:00000013
#053351:000000000000000000000033
#054351:23
#054351:000000000013000000230000
#056371:13
#0563b1:000000000033530033000000
#057371:33
#0573b1:000000000033530033000000
#058371:23
#056320:13
#056360:000000000033530033000000
#057320:33
#057360:000000000033530033000000
#058320:23
#058320:000000133333000000000000
#058350:0023
#058380:000000000000000000133333
#0593b0:23
#060380:12
#0603b0:0022
#061330:12
#061360:0022
#0623b0:12
#062380:0022
#063360:12
#063330:0022
#064330:12
#064360:0022
#065380:12
#0653b0:0022
#0663b0:12
#066380:0022
#067360:12
#067330:0022
#075380:14
#0753a0:0054
#076380:24
#077380:000000130023000000000000
#0773b0:000000000000000000000013
#078380:000000000053000000000000000000000000000000000000
#0783b0:0033
#079380:23
#079380:000000000000000000000013
#0803b0:00230000
#079321:000000000000000000000013
#080351:00230000
#081351:000000130023000000000000
#081321:000000000000000000000013
#082351:00230000
#083321:000000130023000000000000
#083351:000000000000000000000013
#084321:00230000
#085351:000000130023000000000000
#085321:000000000000000000000013
#086351:000000000053000000000000000000000000000000000000
#086321:0033
#087351:23
#087351:000000000000000000000013
#088321:00230000
#0873b0:000000000000000000000013
#088380:00230000
#091350:13
#091320:000000330033000000330033
#092350:0023
#0913b1:13
#091381:000000330033000000330033
#0923b1:0023
#096361:12
#096321:0022
#100381:12
#1003c1:0022
