This file was generated by Ched 2.7.0.0.
#TITLE ""
#ARTIST ""
#DESIGNER ""
#DIFFICULTY 0
#PLAYLEVEL
#SONGID ""
#WAVE ""
#WAVEOFFSET 0
#JACKET ""
#REQUEST "ticks_per_beat 480"
#00002: 4
#BPM01: 190
#00008: 01
#TIL00: ""
#HISPEED 00
#MEASUREHS 00
#0001b:0013
#00014:00000013
#00016:0013
#00019:00000013
#0031b:000000130013000000000000
#00316:000013130000
#00317:000000000000000000130013
#00312:130000000013
#00517:12
#00516:000000000012000000000000
#0051c:12
#00514:000012
#00518:000000000000000000000012
#00512:00120000
#0051a:000012
#0091b:1313
#00912:000000130000000013000000
#00916:000000000000000000140014
#00910:41
#0101b:1313
#01012:001300001300
#01016:000000000000140000001400000000000000001300000000
#01017:000000000000000013000013
#01117:13
#01112:130013000000130000000013
#01115:00130000
#01118:001300
#0111b:000000000013000013000000
#01116:000013
#01217:13
#01214:001300000000000000000000
#01219:001300000000
#01216:00130000
#01218:000000000013000000000000
#0121b:000000001300130000000013
#01212:000013
#01316:13141400
#01312:001300001300
#0131b:130000000013000000000013
#01315:00000013
#01318:000000000013
#01412:130000000013130000000000
#0141b:00130000
#01416:000000000000130000000013
#01417:000013
#01516:130000001400001400000000
#0151a:000000140000140014000000
#01512:130000000014000000000013
#01612:130000000013130000000000
#0161b:000013130000000000000000
#01616:14141400
#01716:000000000014000000000000
#0171b:000013
#01712:240000000013000000000000
#01715:000000000000000000160013
#0171a:24
#01818:1313
#01815:001600000000
#01812:000000130016000013000000
#0181b:000013
#01917:00130000
#01912:000000130000000013000000
#01916:000000000014000000000000
#0191b:000000000013000000000000
#01915:23000016
#01918:230000000000000000000013
#01910:41
#02117:000000000000000013130000
#02112:000000000014000000130000
#0211a:000000000014000000000000
#02116:0000000000000013
#02115:23
#02118:23
#0221b:130000000013130000000000
#02216:000000140000140014001400
#02212:000013130000000000140000
#0221a:000000000000000000000014
#0231b:00130013
#02316:14
#02312:000000130000130000000014
#02315:000000000013000000130000
#02318:000000131300
#02916:000015150000000015150000
#02915:000000000015150000000015
#02912:2323
#0291b:23230023
#02910:41
#03016:000015150000000015150000
#03015:150000000015150000000000
#03012:2323
#0301b:00230023
#03212:2313
#03214:00000013
#03217:0013
#03219:00000013
#0321b:23
#03312:000000130013000000000013
#03316:230000140000000024000000
#0331a:001400
#0331b:230000000000000023000023
#0351b:000000130000000013000000
#03512:230000000013000000000013
#03516:000000240024140024140024
#03618:000000000013000000130000
#03615:001300130013
#03612:000000130000000000000013
#0361b:000013
#03616:14
#04712:2c130000
#0471b:00001313
#04718:000000000013000000001300
#04715:000000001300000000000013
#0451b:000000000000000000000013
#04518:001600260000
#04512:290000260016000013000000
#04515:00000029
#04817:0013
#04812:00000013
#0481b:0013
#04816:00000013
#05115:130000000013000000130000
#05118:000000130000130000000013
#0511b:13000013
#05112:00131300
#05110:41
#05416:14141414
#05412:130000000013000000000013
#0541b:001300001300
#05812:00160000
#05813:001600
#05814:000000000016000000000000
#05815:13002616
#05816:000000000016
#05817:000000000000000000000016
#07216:12
#07219:00120012
#07218:0012
#07215:00120012
#0721c:0012
#07416:000000130013
#0741b:230013
#07412:230000130013
#07417:000013
#07716:240000140000000023000000
#0771b:130013
#0771a:000000000014000000000000
#07712:000000130000000000000013
#07718:000000000000000000000023
#0771f:21
#0801b:000013000000130000130000
#0801a:14
#08012:00131300
#08018:000000000013000000001300
#08015:000000001300000000000013
#08016:13
#08112:130000130013000000000013
#0811b:130013
#08116:00140018
#0811a:001400
#08212:180000000013180000000000
#0821b:001300000000
#08215:00000013
#08216:00180000
#08218:000000000000000013000013
#09312:12
#0931c:00120012
#09318:0012
#09316:12
#09314:0012
#09412:12120000
#09416:0012000000000000
#0941a:00120000
#0941c:00001212
#0951c:12
#0951a:00120012
#09518:1200001200120000
#09512:0012
#09516:0012
#00417:00000012
#00412:13000012
#0041b:0013
#00817:00000013
#00814:001200000000
#00812:000000000012000000130000
#02417:14
#02413:001400000000000000000000
#02418:001400000000
#02414:00140000
#02419:001400
#02415:000000000014000000000000
#0241a:000000000000000000000000243434343434000000000000
#04917:13000000001300001300001300000000
#04915:00130000130000000000000013000013
#04916:00001300000000130013000000001300
#04914:00000013000013000000130000130000
#04913:00000000001300001300001300000000
#04912:00000000000000130013000000000000
#0491b:13
#04919:00130000130000000000000013000013
#0491a:0013000000000013
#04918:00000013000013000000130000130000
#0501b:00130013
#05012:00130013
#05018:000000000000130000000013
#05015:000013
#05215:160000000013160000000016
#05218:00130000
#05212:00131313
#0521b:13000013
#05315:130000000016000000000000
#05312:00131613
#05318:1613
#05316:000000000000000000000014
#0531b:00130013
#05912:0012
#05915:00000012
#05916:0012
#05919:00000012
#05918:26
#0601c:12
#06012:0012
#06018:12
#0601f:11
#06112:12
#0611c:0012
#06118:0012
#06212:0012
#06216:12
#06318:12
#0631c:0012
#06319:00000012
#06416:12
#0641c:0012
#06418:0012
#06512:12
#06518:0012
#0651c:0012
#06519:00120012
#06616:12
#06618:0012
#06718:12
#06715:00120000
#06712:0012
#0671c:0012
#06719:00000012
#06816:12
#06812:12
#06815:00120000
#06818:0012
#06819:00000012
#06916:12
#0691c:0012
#06915:00120012
#06918:0012
#07012:12
#07019:00120000
#0701c:0012
#07015:00000012
#07112:12
#07118:0012
#07119:00120012
#0711c:0012
#07516:0013
#0751b:23
#07517:23
#0761b:13
#07618:00130000130000130000000024000000
#07619:0013001300000000
#07617:00000013001300000000000000000000
#07614:00000013
#07612:0024
#0781b:001300001300
#07815:131300130000
#07812:000000000013000013000000
#07818:000000130013000000000000
#07810:41
#07912:000000000024140000130000
#07916:000000240000000024140000
#07915:23
#07918:23
#0791a:000000000000000000000024
#0831b:1313
#08315:000000130013000013160000
#08318:000013000000000000000013
#08312:1313
#09618:12
#0961c:12
#0841b:00000013
#08412:000000000013260000000000
#08415:000013260000000000000000
#08416:00000024
#08418:26
#0061a:001200000000
#0061c:000000000012000000120000
#00617:00000012
#00112:13000013
#0011b:00131300
#00117:13
#00212:13000013
#0021b:00131300
#00717:12
#00718:000000000012000000000000
#00712:12
#0071a:000012
#00716:000000000000000000000012
#0071c:00120000
#00714:000012
#02015:13
#0201a:001400000000
#02016:000000141400141400000000
#02012:000000000014000013000000
#0201b:000013
#02512:12
#02517:120000120012000000120000
#0261c:0012
#02618:16
#02612:1612
#0271c:0012
#02718:16
#02712:1612
#02819:15
#02812:15
#0341b:0013
#03412:0023
#03718:16000013
#03715:000013160000000013000000
#03712:000000000013160000130000
#0371b:000000000000000000000013
#03812:160000000000000000000013
#03818:001300161300
#03815:00160013
#0381b:000000000013000000130000
#0391b:000000130013000000000000
#03916:00140014
#03912:2c00000000002c0000130013
#0401b:0013
#04019:00000013
#04016:0013
#04014:00000013
#04012:2c240000
#0401a:00240000
#0411b:000000130013000000000013
#04116:000000140000000024000000
#04112:230000001400000023000023
#04117:23
#04110:41
#04312:000000130000000013000000
#0431b:230000000013000000000013
#04316:000000240024140024140024
#04415:000000000013000000130000
#04418:001300130013
#0441b:000000130000000000000013
#04412:000013
#04416:14
#04212:0013
#0421b:0023
#0461b:000000000000000000000013
#04618:160000260013160000260000
#04612:260013160000260000160000
#04615:000013
#0561b:130000000033000033000000
#05617:0013
#05616:140000000034000034000000
#05612:0014
#05716:000000140014000000000000
#0571b:000013
#05715:00000013
#05718:000000000013
#05712:000000000000000000000013
#07312:13131313
#07315:001300000013001300000013
#07318:001313001313
#0731b:13131313
#08516:24140000
#08512:130000000014000013000000
#0851b:000000130000000000000013
#08517:000023
#08515:000000000000000000000023
#08612:001300001300
#08618:131300130000
#0861b:000000000013000013000000
#08615:000000130013000000000000
#0871b:00000013
#0871a:000000000024140000000000
#08716:000000240000000024140000
#08718:23
#08715:23
#08712:000000000000000000000024
#08812:140000130000000000000013
#08817:13
#08818:000000000013000000130000
#08815:001300130013
#0881b:000013
#0911b:00130000
#09112:2c001313
#09115:000000000013000000001300
#09118:000000001300000000000013
#08912:000016000000260000290013
#08918:000000260016000000000000
#0891b:000013
#08915:29
#09012:160000260000160000260013
#0901b:001300000000
#09018:260000160000260013160000
#09015:000000000013000000000000
#09212:0013
#0921b:13
#0971c:12
#09712:00120012
#09716:0012
#09718:12
#0971a:0012
#0981c:12120000
#09818:0012000000000000
#09814:00120000
#09812:00001212
#09912:12
#09914:00120012
#09916:1200001200120000
#0991c:0012
#09918:0012
#10016:12
#10012:12
#05516:24242400
#05512:2323
#0551b:00230000
#03112:23000023
#03115:000000000023000000000000
#0311b:23000023
#03118:000000000023000000000000
#0115b:000053
#01157:53
#01052:000053
#01056:000000000000000000000000000000000000002300000000
#01057:000013
#01252:000053
#0125b:0053
#01452:53
#0145b:000000530000000013000000
#01456:0053
#01457:000053
#0155a:000054
#01656:0054
#0175a:14
#01752:14
#02152:00000053
#02155:13
#02158:13
#02156:0000000000000023
#03352:000000000000000000000053
#03356:13540000
#0335a:002400
#0335b:13
#04857:0053
#04852:00000023
#0485b:0053
#04856:00000023
#04957:53000000005300005300005300000000
#04955:00530000530000000000000053000053
#04956:00005300000000530053000000005300
#04954:00000053000053000000530000530000
#04953:00000000005300005300005300000000
#04952:00000000000000530053000000000000
#0495b:53
#04959:00530000530000000000000053000053
#0495a:0053000000000053
#04958:00000053000053000000530000530000
#05155:13
#05158:0013
#05255:1616
#05355:13
#05358:0013
#0605c:52
#06152:52
#06158:0052
#06358:52
#06256:62
#06456:52
#0645c:0022
#06552:52
#06558:0022
#06656:62
#06858:0052
#06856:52
#06956:52
#0695c:0022
#07052:62
#0705c:0062
#07152:62
#07158:0022
#07556:0023
#07557:53
#0755b:53
#0765b:53
#07658:00530000530000530000000000000000
#07659:0053005300000000
#07657:00000053005300000000000000000000
#07652:33
#07756:14
#07752:00530000
#09452:00520000
#09658:52
#0965c:52
#00152:53
#0015b:0023
#00252:53
#0025b:0023
#00352:53
#00356:0053
#00452:53
#00852:00000053
#0095b:63
#00952:00530000
#01955:13
#01958:13
#01852:000053
#0185b:000063
#0205b:000053
#02052:000053
#0265c:0022
#02658:56
#02652:6622
#0275c:0022
#02758:56
#02752:6622
#02859:55
#02852:65
#03052:3333
#0305b:00430043
#03152:53
#03155:000000000053000000000000
#0315b:63
#03158:000000000063000000000000
#0345b:0053
#03952:1c1c
#04052:1c
#0415b:000000000000000000000063
#04156:00640000
#04152:132400
#04157:13
#04252:0063
#05556:14141400
#0565b:53
#05656:54
#05657:0023
#05652:0024
#05958:16
#07852:000063
#0785b:000053
#07955:13
#07958:13
#08156:00540018
#0815a:002400
#08252:1818
#08256:00180000
#0855b:00630000
#08556:14
#0865b:000053
#08652:000063
#08758:13
#08755:13
#0925b:53
#09558:52
#09552:0052
#0985c:00620000
#10056:62
#10052:62
#09956:62
#0995c:0062
#001320:13
#001370:0023
#0013b1:0013
#002361:23
#002320:13
#002370:0023
#0023b1:0013
#003361:23
#003320:13
#003360:00230000
#003360:0013
#003320:00000023
#004320:13
#004370:0023
#005380:00120000
#0053c0:000000000022000000000000
#005320:000000000000000000000012
#006340:003200000000
#006360:000000000022000000000000
#007360:00120000
#007320:000000000022000000000000
#0073c0:000000000000000000000012
#0083a0:003200000000
#008380:000000000022000000000000
#008320:00000013
#008360:0000000000000053
#009360:23
#0093b1:13
#009371:0053230000000000
#009320:00130000
#009360:0000005323000000
#010320:000000000000000013000023
#010360:000000000000000000000000000000000000005300000000
#011370:13
#0113b0:002300000000
#0113b0:000013
#011370:000000000000000000000023
#0123b0:0013
#012370:000023
#012321:000013
#012361:000000000000000000000023
#014321:13
#014371:00230000
#0143b0:00130000
#014360:000000000023000000000000
#014360:0013
#0143b0:000023
#014371:000013
#014321:000000000000000000000023
#0153a1:000014
#015361:000000000000000000000024
#016361:0014
#0173a1:24
#018321:000013
#019351:23
#0183b0:000013
#019380:23
#0203b0:000013
#021380:23
#020321:000013
#021351:23
#021321:00000013
#021361:0000000000000053
#022321:23
#0243a1:000000000000000000000000143434343434000000000000
#024321:00000024
#0253c1:000000120022000000000000
#025321:000000000000000012220000
#026381:16
#0263c1:0052
#027381:56
#0273c1:0052
#028391:55
#0283c1:00005222
#026320:1652
#027320:5652
#028320:55005222
#031320:13
#031350:00230000
#0313b1:13
#031381:00230000
#031351:000000000013000000000000
#031321:000023
#031380:000000000013000000000000
#0313b0:000023
#033360:000000140024000000000000
#0333a0:005400
#033320:000000000000000000000013
#034380:00230000
#0333b1:000000000000000000000013
#0343b1:00230000
#0343b1:0013
#035351:23
#041361:000000140024000000000000
#041321:005400
#0413b1:000000000000000000000013
#042351:00230000
#041320:000000000000000000000013
#042320:00230000
#042320:0013
#043380:23
#048320:13000053
#048370:0033
#049370:53
#049350:00530000530000000000000053000053
#049360:0053000000000053
#049340:00000053000053000000530000530000
#049330:00000000005300005300005300000000
#049320:00000000000000530053000000000000
#050370:23
#0483b1:0013
#048361:00000053
#0493b1:33
#049391:00530000530000000000000053000053
#0493a1:0053000000000053
#049381:00000053000053000000530000530000
#049371:00000000005300005300005300000000
#049361:00000000000000530053000000000000
#0503b1:23
#056361:140000000034000034000000
#056321:0054
#057361:24
#0563b0:130000000033000033000000
#056370:0053
#0573b0:23
#057320:000000130023000000000000
#0603c0:12
#060360:0052
#061360:22
#061321:12
#061381:0032
#062321:22
#062360:12
#0623c0:0052
#0633c0:22
#063381:12
#063321:0052
#064321:22
#064360:12
#0643c0:0052
#065360:22
#065321:12
#065381:0052
#066321:22
#066360:12
#0663c0:0052
#0673c0:22
#068360:12
#0683c0:0022
#068381:0012
#069321:22
#069360:12
#0693c0:0052
#070360:22
#070321:12
#070381:0022
#0703c0:0012
#071360:22
#071321:12
#071381:0052
#072321:22
#0753b1:13
#075361:0053
#0763b1:3323
#076381:00530000530000530000000000000000
#076391:0053005300000000
#076371:00000053005300000000000000000000
#075370:13
#075320:0053
#076320:23
#077321:00130000
#077361:000000000023000000000000
#078321:000013
#079351:23
#0783b0:000013
#079380:23
#0793b0:00130000
#079370:000000000023000000000000
#081360:000000140024000000000000
#0813a0:005400
#0853b0:00130000
#085370:000000000023000000000000
#0863b0:000013
#087380:23
#086321:000013
#087351:23
#087321:00130000
#087361:000000000023000000000000
#0923b1:13
#092351:0023
#094321:00120000
#095381:32
#095321:0032
#096381:32
#096321:0022
#0963c0:12
#096360:0022
#0983c0:00120000
#099360:32
#0993c0:0032
#100360:32
#1003c0:0022
#100321:12
#100381:0022
