This file was generated by Ched 2.7.0.0.
#TITLE ""
#ARTIST ""
#DESIGNER ""
#DIFFICULTY 0
#PLAYLEVEL
#SONGID ""
#WAVE ""
#WAVEOFFSET 0
#JACKET ""
#REQUEST "ticks_per_beat 480"
#00002: 4
#BPM01: 190
#00008: 01
#TIL00: ""
#HISPEED 00
#MEASUREHS 00
#00512:2414
#0071a:1414
#01014:0014
#01218:0014
#01312:14
#01318:0014
#0151a:14
#01514:0014
#02918:00140014
#02912:2414
#02910:41
#03014:1414
#0301a:00140014
#03618:00001414
#03619:25
#03612:25
#03712:14
#03718:0014
#03814:14140000
#0381a:0014
#0401a:0014
#0451a:1414
#04514:00140014
#04618:1414
#04612:00140014
#0501a:0014
#05812:14
#05816:0014
#07212:14
#07218:00140000
#07214:0014
#0721a:00000014
#07312:14
#07318:00140000
#07314:0014
#0731a:00000014
#0891a:14
#08914:00140000
#08918:0014
#08912:00000014
#0901a:14
#09014:00140000
#09018:0014
#09012:00000014
#09312:14
#0931a:0014
#09414:14
#09418:0014
#04412:0014
#05112:1414
#05110:41
#05218:1414
#05314:1414
#0541a:1414
#05514:1414
#0971a:14
#09712:0014
#09818:14
#09814:0014
#07612:0016
#07618:00000016
#06812:1414
#06914:1414
#0701a:1414
#07118:1414
#08118:1616
#08216:1616
#08314:1616
#03112:140000000034000000340000
#02318:00140014
#02314:1414
#02414:1424
#02418:00140000
#0601f:11
#01712:24
#03512:2525
#03519:2525
#04113:2424
#04119:2424
#04110:41
#04213:2424
#04219:2424
#07518:24
#07712:26
#0771f:21
#07913:2424
#07919:2424
#08013:24
#08019:24
#0191a:24
#01910:41
#04319:24
#04313:24
#08714:0024
#0871a:24
#08812:0024
#08818:24
#08518:26
#08512:0026
#08618:26
#08612:0026
#02118:24
#03214:24
#02218:0024
#02214:24
#04912:24
#02518:0034
#02618:3434
#07810:41
#00910:41
#0485a:0014
#07752:16
#03254:14
#02856:14
#0013a0:14
#002380:34
#0033a0:34
#003390:0034
#004380:3424
#006320:1424
#0083a0:1424
#009320:14
#010340:24
#0113a0:14
#012380:24
#014320:1424
#0163a0:1424
#017320:14
#018340:3424
#0193a0:14
#020380:3424
#025380:1434
#026380:3434
#027360:34
#028360:24
#031320:140000000034000000340000
#032340:24
#0333a0:14
#033380:0034
#0343a0:34
#034380:0024
#039320:14
#039340:0034
#040320:24
#043390:1434
#044390:24
#043331:1434
#044331:24
#047381:14
#047391:0034
#0483a1:3424
#049321:14
#050341:24
#0563a1:14
#0573a1:24
#0593a1:1424
#060321:14
#060331:0034
#061341:3434
#062341:34
#062331:0034
#063321:3424
#0643a1:14
#064391:0034
#065381:3434
#066381:34
#066391:0034
#0673a1:3424
#074321:1424
#075381:14
#0763a1:24
#080331:1424
#080390:1424
#084320:1626
#091380:14
#091390:0034
#0923a0:3424
#095320:14
#095330:0034
#096340:3424
#0993a0:14
#099390:0034
#100380:3424
