This file was generated by Ched 2.6.4.0.
#TITLE ""
#ARTIST ""
#DESIGNER "hard"
#DIFFICULTY 0
#PLAYLEVEL
#SONGID ""
#WAVE ""
#WAVEOFFSET 0
#JACKET ""
#REQUEST "ticks_per_beat 480"
#00002: 4
#BPM01: 80
#00008: 01
#TIL00: ""
#HISPEED 00
#MEASUREHS 00
#00018:14
#00114:14
#00218:14
#00314:14
#0041a:14
#00412:0014
#00410:41
#00512:0014
#0051a:14
#00618:14
#00614:0014
#00714:0014
#00718:14
#0081a:1414
#00912:1414
#01018:1414
#01010:41
#01114:1414
#01618:26160000
#01612:00001616
#01610:41
#01812:1616
#01918:1616
#02012:26160000
#02018:00001616
#02218:1616
#02312:1616
#03212:00160016
#03218:2616
#0281f:11
#03318:16000016
#0331f:0021
#03312:0026
#04714:14
#04718:00140000
#04512:0014
#0451a:14
#04414:0014
#04418:14
#04314:1414
#04218:1414
#04112:1414
#0401a:1414
#04010:41
#03812:00001616
#03818:16160000
#03612:2616
#03618:00160016
#03418:00001616
#03412:16160000
#03410:41
#02410:41
#0123a0:1424
#013320:1424
#014380:1424
#015340:1424
#017380:1626
#021320:1626
#0243a0:14
#0253a0:24
#026320:14
#027320:24
#028380:14
#029380:24
#030340:14
#031340:24
#035320:16260000
#035380:00001626
#037320:1626
#039380:16260000
#039320:00001626
#0463a0:14
#046380:00000024
#047340:00001424
