This file was generated by Ched 2.6.4.0.
#TITLE ""
#ARTIST ""
#DESIGNER ""
#DIFFICULTY 0
#PLAYLEVEL
#SONGID ""
#WAVE ""
#WAVEOFFSET 0
#JACKET ""
#REQUEST "ticks_per_beat 480"
#00002: 4
#BPM01: 80
#00008: 01
#TIL00: ""
#HISPEED 00
#MEASUREHS 00
#0021a:12120000
#00216:12120000
#00214:00001212
#00218:00001212
#00316:1212
#0031c:1212
#00312:00120012
#00318:00120012
#00314:0000000000120000
#0031a:0000000000000012
#0041b:23130013
#00417:0013001300000000
#00416:23001313
#00412:0000001300130013
#00410:41
#00516:13
#0051b:0013000000000000
#00517:00130013
#00519:0000000000130013
#00512:00000013
#00514:0000000000000013
#00714:0000000000130013
#00717:1313
#00712:1313
#0071b:0000131300000000
#00716:0000001300001300
#00719:0013000000000000
#0081c:0012000012000000
#00812:23120000
#00816:0012000000120000
#00818:00120012
#00814:0000000000000012
#00817:23
#00918:1200000012000012
#0091a:0012000000000000
#0091c:00120000
#00916:00120012
#00912:1200000012000012
#00914:0000001200000000
#01116:12000000000000000000000000000012
#0111a:1200000012000012
#01112:0012000000001200
#01114:00121200
#01118:00120012
#0111c:0000001200000000
#0121c:12120000
#01212:0012000012000000
#01218:0012000000120000
#01216:00120012
#0121a:0000000000000012
#0141c:0012120012001200
#01416:0012000012000000
#01412:1200121200120012
#01418:1200001200000000
#0151a:12
#01512:0012
#0151c:0012
#01514:0012000000000013
#01519:0000000000000013
#01518:00120000
#01516:0000001200000000
#01617:0013000000130000
#0161b:2300130013000013
#01616:2300130013000013
#01612:0000001300130000
#01610:41
#01719:0013000000000000
#0171b:0000131300000013
#01716:0000131300000000
#01712:13001313
#01717:1313
#01715:0000000000000013
#01714:0013000000000000
#01718:00000013
#0181b:1313000000000000
#01815:00130000
#01818:00001313
#01812:1300000000130013
#01916:13
#0191b:1313
#01917:00130000
#01912:00131300
#01919:0013001300000013
#01918:0000000000130000
#01915:0000000000130000
#01914:0000000000000013
#0211b:13001313
#02112:0000131300000013
#02117:0000131300000013
#02116:13001313
#02114:00001300000000000000000000130000
#02119:00001300000000000000000000130000
#02212:1313000000000000
#02218:00130000
#02215:00001313
#0221b:1300000000130023
#0231b:1300002300130000
#02316:2300000000130000
#02319:00000013
#02317:0000230023000013
#02314:00000013
#02312:0023130013000013
#02415:00000000000013000000000000130013
#02418:00001300000000130000000000001300
#02412:23131300
#0241b:23000000001300000000000013000000
#02416:0000000000130000
#02410:41
#0251b:13000013000000000000000013000000
#02518:00000000130000000000001300001300
#02512:00000000000013000013000000000013
#02515:00000000001300000000130000130000
#02615:00001313000000001300000000130000
#02618:13000000001300000000131300000000
#02612:00000000000013000000000000000013
#0261b:00000000000000130000000000001300
#02718:13000013002300000013001300000013
#02712:00000000002300000000000013000000
#0271b:00000000000000230000000013000000
#02715:00001300130000230000130000001300
#02812:00001300001300000000000013000000
#02818:00000013130000000000000000001300
#02815:0000000000000013000000000000000000000000000000000000130000000000
#0281b:23000000000000131300000000000013
#02817:0000000000130000
#0281f:11
#02915:13000013000000000013000013000000
#02918:00130000001300000000000000130000
#0291b:00000000000000001300130000000013
#02912:0000001300000013
#03112:00000000130000000000000000131300
#03115:00130013000000130000000000000000
#0311b:00000000130000000000000000131300
#03118:00001300000000130000000000000000
#03516:1300000013000013
#0351b:1300001313000013
#03512:0013130000130000
#03517:0000130000130000
#03514:00000000000000000000000000000013
#0381b:13000013000000001300000000130000
#03818:0013001300131300
#03815:0013130000130013
#03812:13000000001300001300001300000000
#03917:13
#0391b:0013130013000013
#03912:1300001313000000
#03916:00130000
#03918:0000000000130000
#03915:00000013
#04017:2313001300000000
#0401b:00130013
#04016:00130000
#04012:0000001313000000
#04019:0000000000000013
#04014:0000000000000013
#04010:41
#04117:1300000000130000
#04116:00000013
#04112:1300001313130000
#0411b:0013130000000000
#0421b:13
#04216:0000001300130000
#04212:0013
#04217:0013000013000013
#0431b:1300131300000013
#04312:1313130013000000
#04316:0000001300130013
#04317:0013000013001300
#0001a:12120000
#00014:00001212
#00118:12
#00116:00120000
#0011a:0012
#00114:00000012
#01012:0012000000000000
#01016:12120000
#01014:0000000000120000
#01018:0012000012001200
#0101c:1200120000000012
#01010:41
#02012:2300130013000013
#02017:2300130013000013
#02016:0013000000130000
#0201b:0000001300130000
#03212:0000001300000013
#0321b:23000000000000131300000013000000
#03216:23131323
#03217:0013000000230023
#03219:00000000000000000000001300000013
#03214:00000000000000000000000000130000
#0361b:0000001300000013
#03612:23131313
#03617:23131323
#03616:0013000000230023
#0441b:2300131300130000
#04412:23131313
#04416:0000001300000013
#04417:0013000013001300
#0451b:1300000013000013
#04516:1300000013000013
#04514:0013000000130000
#04517:00130013
#04512:00130013
#04519:0000001300000000
#04617:1200121200122200
#04612:0000001200000000
#0461c:12
#04619:0000000000000022
#0471c:00000012
#04712:00000012
#04715:0022000022000000
#04719:0000002222000000
#04717:22220000
#0061b:1300000013000013
#00617:00130000
#00619:0013001300000000
#00614:0000001300130000
#00616:1300000013000013
#00612:00000013
#03712:1300001300001300
#0371b:0013130013130013
#03716:0000130013000013
#03714:00000000000000000000000000130000
#03719:00000000000000000000000000130000
#01316:1200000012000012
#01314:0012000000000000
#01312:00120000
#01318:00120012
#0131c:1200000012000012
#0131a:0000001200000000
#03018:00130000130000000000000000001313
#03012:00001313000000001300000000130000
#0301b:00000000000013130013000013000000
#03015:13000000001300000000131300000000
#03319:0012000000000000
#03315:00122300
#03312:00000000000012000013130000000000
#0331c:12
#03318:00000000000000130000130000001313
#03316:00000013
#0331b:00000000000000002300001313000000
#0331f:0021
#03417:0013
#03412:13001300000013130000000013000000
#0341b:00130000130000000000130000001300
#03416:0000000000130000
#03410:41
#00556:0013
#0055b:0013
#00852:00520000
#00958:0052
#01154:0012
#0115a:0012
#0145c:0012
#01456:0062
#01452:0000000000220000
#01552:0052
#0155c:0052
#0165b:13630013
#01656:63002313
#01652:0000006300630000
#01657:0000001300630000
#0175b:0000135300000043
#01756:0000005300000000
#01752:13002333
#01757:0023
#0185b:0023000000000013
#01855:00630000
#01852:0000001300230000
#01858:00000053
#0195b:00006343
#01958:0000000000230000
#01952:00005333
#01955:0000000000230000
#02252:0023000000000013
#02258:00530000
#0225b:0000001300230000
#02255:00000063
#0235b:63
#02357:0013
#02352:00531300
#02658:53
#02655:0063
#0285b:1363
#02852:00000000005300000000000000000000
#02857:0000000000230000
#03152:0000530000330000
#03155:00000000000000230000000000000000
#0315b:0000630000430000
#03158:00000000000000230000000000000000
#02452:1353
#0245b:13
#02456:0000000000230000
#03858:0063000000006313
#0385b:00000023000000000000000000230000
#03855:0000531300530000
#03852:00000000002300000000002300000000
#03952:5353
#03956:0013000000000000
#0395b:0000630000000053
#03957:0000001300000000
#03958:0000000000530000
#03955:00000053
#04057:13
#04056:00000013
#0405b:00130000
#04152:5313
#04157:1313
#0415b:00630000
#04156:00130013
#04252:00130000
#0425b:00000013
#01056:00620000
#02152:0000136300000000
#02157:0000006300000000
#0215b:1323
#02156:0023
#03556:00006343
#03552:0000630000230000
#0355b:53006343
#03557:0000000000230000
#02052:13530013
#02057:53002313
#0205b:0000005300530000
#02056:0000001300530000
#03256:6323
#0325b:13
#03252:0000006300000063
#0365b:0000005300000053
#03652:13630000
#03657:5323
#0445b:13130000
#04452:13002313
#04456:0000006300000000
#04457:00000063
#0435b:00130000
#04357:0053
#04356:0000000000630000
#04352:00000013
#0455b:1313
#04552:00130013
#04657:6200005200000000
#00656:63
#0065b:0063
#00752:63
#00757:0053
#0075b:00000013
#03752:6300005300000000
#0375b:0000530000630000
#03756:0013000023000000
#03757:0000001300000000
#0125c:00620000
#01356:0062
#0295b:0000000000630000
#02952:0000005300000000
#03356:00000063
#0335b:0013
#03352:0000000000000013
#03452:0053000000005300
#0345b:0000630000630000
#03457:0000001300000000
#03456:0000000000000013
#004320:0013000000000000
#004360:00230000
#0043b0:0013
#004370:0000000000230000
#004370:0000000000000013
#0053b0:23
#005360:0013000000000000
#005320:00230000
#005320:0000001300000000
#005360:0023
#005371:0000001300000000
#0053b1:0023
#006361:13
#006321:00230000
#0063b1:0013
#006371:00000023
#007321:13
#007361:00230000
#007371:0013
#0073b1:00000023
#008321:00120000
#008361:0022
#009381:0012
#0093c1:00000022
#010361:00120000
#010321:0022
#0123c1:00120000
#012381:0022
#013361:0012
#013321:00000022
#014361:00001222
#014321:0000000000520000
#015321:0012
#015361:00000022
#0153c0:0012
#015380:00000022
#016360:13
#016320:0023000000000000
#0163b0:00130000
#016370:0000002300000000
#016321:0000001300330000
#016361:00005323
#016370:0000000000130000
#0163b0:00000023
#0173b0:0000001300230000
#017370:0053
#017361:0000001300230000
#017321:0053
#0183b1:0013000000000000
#018381:00230000
#018350:00130000
#018320:0000002300000000
#018320:0000000000130000
#018350:00000023
#018381:00000013
#0183b1:0000000000000023
#0193b1:00001323
#019381:0000000000530000
#019320:00001323
#019350:0000000000530000
#020370:13
#0203b0:0023000000000000
#020320:00130000
#020360:0000002300000000
#0203b1:0000001300330000
#020371:00005323
#020360:0000000000130000
#020320:00000023
#021320:0000001300230000
#021360:0053
#021371:0000001300230000
#0213b1:0053
#022321:0013000000000000
#022351:00230000
#022380:00130000
#0223b0:0000002300000000
#0223b0:0000000000130000
#022380:00000023
#022351:00000013
#022321:0000000000000023
#0233b1:13
#023371:0023000000000000
#023321:00130000
#023361:0000002300000000
#024321:00001323
#024361:0000000000530000
#025321:00130023000000000000000000000000
#0253b1:00000000000000130023000000000000
#026381:13
#0263b1:00000023000000000000000000000000
#026351:0013
#026321:00000000000000000000002300000000
#028321:00000000001300000000000000000000
#028361:00000000000000332300000000000000
#0283b0:00001323
#028370:0000000000530000
#0293b0:00001323000000000000000000000000
#029320:00000000132300000000000000000000
#029320:0000001300000000
#029350:0023
#0293b0:0000000000130000
#029380:00000023
#031320:0000130000230000
#031350:00000000000000530000000000000000
#0313b1:0000130000230000
#031381:00000000000000530000000000000000
#032361:13
#032321:0023000000000000
#0323b1:0000132300000000
#032320:0000001300230000
#032360:0053
#032320:0000000000000013
#033360:23
#033360:00000013
#033320:0000000000000023
#034320:0013000000000000
#034360:00230000
#0343b1:00130000
#034371:0000002300000000
#0343b1:0000000000130000
#034371:00000023
#034320:00000013
#034360:0000000000000023
#0353b0:13
#035370:0023000000000000
#035320:00130000
#035360:0000002300000000
#035360:00001323
#035320:0000000000530000
#0353b1:00001323
#035371:0000000000530000
#036371:13
#0363b1:0023000000000000
#036321:00130000
#036361:0000002300000000
#0363b0:0000001300230000
#036370:0053
#0363b0:0000000000000013
#037370:23
#037321:13
#037361:0023000000000000
#0373b1:00130000
#037371:0000002300000000
#037320:0000001300230000
#037360:0053
#0373b1:0000000000130000
#037371:00000023
#038381:0013230000000000
#0383b1:00000053000000000000000000000000
#038350:0000132300000000
#038320:00000000005300000000000000000000
#038350:0000000000132300
#038320:00000000000000000000005300000000
#038381:0000000000001323
#0383b1:00000000000000000000000000530000
#039321:13
#039361:0023000000000000
#0393b1:00130000
#039371:0000002300000000
#039321:0013
#039351:0000000000230000
#039380:0000000000130000
#0393b0:00000023
#039351:00000013
#039321:0000000000000023
#0393b0:0000000000000013
#040370:23
#040321:1323000000000000
#040371:0013
#0403b1:0000000000230000
#040320:0000000000130000
#040360:00000023
#041320:13
#041360:0033230000000000
#0413b1:00130000
#041371:0000003323000000
#0413b1:00000013
#041371:0000000000000023
#041320:0000000000000013
#042360:23
#042320:0013230000000000
#042371:00130000
#0423b1:0000002300000000
#0423b1:0000000000132300
#042360:00000013
#042320:0000000000000023
#043370:0013
#0433b0:0000000000230000
#043361:0000000000130000
#043321:00000023
#044361:0000001300230000
#044321:0053
#044371:00000013
#0443b1:0000000000000023
#046371:12
#046321:00220000
#046371:0000001200000000
#0463c1:0000000000220000
#0473c1:1222000000000000
#047321:0000122200000000
