This file was generated by Ched 2.6.4.0.
#TITLE ""
#ARTIST ""
#DESIGNER "hard"
#DIFFICULTY 0
#PLAYLEVEL
#SONGID ""
#WAVE ""
#WAVEOFFSET 0
#JACKET ""
#REQUEST "ticks_per_beat 480"
#00002: 4
#BPM01: 80
#00008: 01
#TIL00: ""
#HISPEED 00
#MEASUREHS 00
#02415:00001300001300130000000000001300
#02418:0000131313000000
#0241b:2300000000130000
#02412:23
#02410:41
#0271b:13
#02715:00001300000000000013001300001300
#02718:00000013000000000000130013000000
#02712:00000000002400000000000000000000
#0271a:00000000000000240000000000000000
#02818:0000130000000013
#0281b:23000000000000331300000000000000
#02815:00000000000000000000000000130013
#0281f:11
#02812:23
#0281a:00000000003300000000000000000000
#03118:00130013000000000000000000001300
#03115:0013130000000000
#03318:0012001200001300
#03316:12120000
#03315:0000000000130013
#03312:0023
#0331b:0023
#0331f:0021
#00412:0000001300000000
#0041b:23000013
#00415:0000000000000013
#00410:41
#00518:1300001300000013
#00512:0013000000000000
#00515:00130013
#0051b:0013
#00618:00131300
#00615:1300001300001300
#0061b:1300000000000013
#00612:0013
#01915:1300000000000013
#0191b:0013000000000000
#01912:00131300
#01918:0000001313000000
#03215:00130000
#0321b:0013000013000023
#03218:0000001300000000
#03212:23000023
#03715:00000000130000001300000000130000
#0371b:13
#03718:0013000000001313
#03712:0000001300000000
#04115:0000130000130000
#0411b:1313
#04112:0013000000000000
#04118:0000001300000000
#04218:0013000000000000
#04215:0000000000130000
#04318:0013000000001300
#04315:0000000000130000
#04312:0000000000000013
#00718:13130000
#00712:1300001300001300
#00715:0013
#0071b:00001313
#00819:0012000000120012
#00815:00000012
#0081b:23
#00812:23
#00915:12
#0091b:0012000000000000
#00913:00120000
#00919:0000001200000000
#0091a:0000000000000012
#0141a:0012000000000000
#01416:00120000
#01418:0000001200000012
#01514:12
#01518:0012000000000013
#01516:00120000
#0151a:0000001200000000
#01014:0012000000120000
#0101a:00000012
#01016:0000000000000012
#01010:41
#0111c:12
#01116:0012000000000000
#0111a:00120000
#01114:0000001200000000
#0121b:12
#01215:0012000000120012
#01219:00000012
#01213:12
#01319:12
#01313:0012000000000000
#0131b:00120000
#01315:0000001200000000
#01314:0000000000000012
#01615:23130013
#01618:0013000013000013
#0161b:0000001300000000
#01610:41
#01718:0000001300000013
#01715:00130013
#01712:13
#0171b:0013000000000000
#02018:23130013
#02015:0013000013000013
#02012:0000001300000000
#02115:0000001300000013
#02118:00130013
#0211b:13
#02112:0013000000000000
#02312:0023000013000000
#0231b:2323
#02318:00230000
#02315:0000002300000000
#02515:0000131300000000
#02518:00000000001300000000000000000000
#02615:13000000000000000000000000130000
#02618:0000000013000013
#02612:00003300000000000000000000000013
#0261b:0000000000330000
#02918:0013000000130000
#0291b:00000000000013000000000013333333
#03015:13000000000000331300000000000000
#03012:00000033130000000000003313000000
#03013:00003300003300000000330000330000
#03014:00330000000033000033000000003300
#03515:0000130000130013
#0351b:0000001300130000
#03512:1313
#03518:0013000013000000
#03618:00130000
#03612:0013000013000023
#03615:0000001300000000
#0361b:23000023
#03912:0000001300130000
#0391b:1313
#03918:0000130000130000
#03915:0013000013000000
#0401b:00000013
#04012:0000000000000013
#04015:00130000
#04018:0000000000130000
#04010:41
#04415:0013000000000013
#0441b:00130000
#04412:0000001300000000
#04418:23000013
#0451b:1313
#04512:0013000000000000
#04515:0000130000000013
#04518:0000001300000000
#00214:12120000
#0021a:00001212
#00316:1200120000120012
#00318:00001212
#00014:12120000
#0001a:00001212
#00116:12120000
#00118:00001212
#0471a:00002212
#04714:0000002200001200
#04718:22220000
#04716:0022000000000000
#0461a:00000022
#04614:0000000000000022
#03410:41
#0055b:0013
#03455:0000001300000000
#0345b:0000001300000000
#03458:0000000000000013
#03452:0000000000000013
#03858:0000001300000000
#03852:0000001300000000
#03855:0000000000000013
#0385b:0000000000000013
#01852:0000001300000000
#0185b:0000000000000013
#01758:0000005300000000
#01655:13
#0165b:0000006300000000
#01658:0023
#01958:0053
#01952:0053
#02155:0000006300000000
#02052:0000005300000000
#02055:0023
#02058:13
#0225b:0000001300000000
#02252:0000000000000013
#02352:0053
#0235b:0063
#02458:0053
#0245b:0000000000230000
#02655:63
#02658:0053
#02858:00530000
#0285b:0063
#02958:0053000000530000
#0295b:0000006300006300
#03055:6363
#03052:00530053
#03155:00530000
#03152:0000000000130000
#03252:13
#03258:0000005300000000
#0325b:0023
#03655:0000006300000000
#03652:0023
#0365b:13
#03558:0053
#0355b:0000000000230000
#03552:0053
#03555:0000000000230000
#03752:0000005300000000
#03755:0023
#03955:0063
#03952:0000000000230000
#0395b:0063
#03958:0000000000230000
#0415b:0013
#04452:0000006300000000
#0455b:0013
#0043b0:0013000000000000
#004380:00230000
#004320:0013
#004350:0000000000230000
#008350:00122200
#009350:00001222
#010380:00122200
#011380:00001222
#012390:00122200
#013390:00001222
#014340:00001222
#015360:00001222
#0163b0:0000001300230000
#016380:0053
#017380:0000001300000000
#0173b0:0000000000230000
#018320:0013002300000000
#018350:00330000
#0183b0:0000000000130023
#018380:00000033
#019380:0013
#0193b0:00000023
#019321:0013
#019351:00000023
#020321:0000001300230000
#020351:0053
#021351:0000001300000000
#021321:0000000000230000
#0223b1:0013002300000000
#022381:00330000
#022321:0000000000130023
#022351:00000033
#023321:0013
#023351:00000023
#0233b0:0013
#023380:00000023
#024380:00001323
#0243b0:0000000000530000
#025380:1323000000000000
#025380:00000000000000130033333323000000
#025351:00000000000000000000000013333333
#026351:33
#026321:00003323000000000000000000000000
#026381:00000000001333333300000000000000
#0263b1:00000000000000000000332300000000
#028381:0000000013003333330000000000000000000000000000002300000000000000
#0283a1:00000000003300000000000000000000
#0283b1:00000000000000333300000000000000
#029381:13333300000000003333330000000000
#0293b1:00000000333333000000000033333333
#030381:23
#030350:13000000000000333300000000000023
#030340:00330000000033000033000000003300
#030330:00003300003300000000330000330000
#030320:00000033330000000000003333000000
#031350:00130000
#031320:0000000000230000
#032380:0000001300230000
#0323b0:0053
#034350:0013002300000000
#034320:00330000
#0343b1:0013002300000000
#034381:00330000
#034381:0000000000130023
#0343b1:00000033
#034320:0000000000130023
#034350:00000033
#035380:00001323
#0353b0:0000000000530000
#035321:00001323
#035351:0000000000530000
#036351:0000001300230000
#036321:0053
#037321:0000001300230000
#037351:0053
#038381:0013002300000000
#0383b1:00330000
#038320:0013002300000000
#038350:00330000
#038350:0000000000130023
#038320:00000033
#0383b1:0000000000130023
#038381:00000033
#039351:00001323
#039321:0000000000530000
#0393b0:00001323
#039380:0000000000530000
#0403b0:13
#040380:0023000000000000
#040320:0000001300000000
#040350:0023
#0413b0:00000013
#041380:0000000000000033
#0423b0:23
#042320:00132300
#042350:0000003300000000
#042380:00000013
#0423b0:0000000000000033
#043380:23
#043350:00132300
#043320:0000003300000000
#044320:0000001300000000
#044350:0000000000230000
#046380:12220000
#046360:0000001200220000
