This file was generated by Ched 2.6.4.0.
#TITLE ""
#ARTIST ""
#DESIGNER ""
#DIFFICULTY 0
#PLAYLEVEL
#SONGID ""
#WAVE ""
#WAVEOFFSET 0
#JACKET ""
#REQUEST "ticks_per_beat 480"
#00002: 4
#BPM01: 80
#00008: 01
#TIL00: ""
#HISPEED 00
#MEASUREHS 00
#0011c:12
#00116:12
#0011a:00120012
#00114:00120012
#00112:0012
#00118:0012
#0031c:1200000000120000
#00312:0000000012000012
#00318:12
#00319:00120000
#00315:00120000
#00316:0012
#00617:13130000
#00612:13000013130000000000130000000000
#00614:0000001300000013
#00619:0000001300000013
#0061b:00001300000000001300001313000000
#00616:00001313
#00714:00000013000013000000000000001300
#00717:1300000000130000
#00712:1300130000130000
#00716:0013000013000000
#0071b:0013000013001300
#00719:00000000000013000000001300001300
#00817:2312121200000000
#00812:2300120012000012
#00816:0000000000120000
#00814:00000000000000000000000012000012
#0081c:0012001200120000
#0081a:00000012
#00818:0000000000000012
#00916:12120000
#00914:0000001200000000
#0091a:00000000000012000000120000000012
#00918:0000000012000012
#00912:0012000012000000
#0091c:12000012
#00917:0012000000120000
#01118:0000000012000012
#01116:00000000000000001200000000000012
#0111a:0000001200001200
#01114:0000001200001200
#01117:1212000000000000
#01112:12120000
#0111c:0012000000000000
#01514:0000000000000013
#01519:0000000000000013
#01512:0012120012000000
#0151c:1200001212000000
#01517:120000000000000000000000000000000000000000000000000000000000000000000000000000000000000000000000000000000000000000000000000000000000000000000000000000000000000000000000000000000000000000000000000000000000000000000000000000000000000000000000000000000000000000000000000000000000000000000000000000000000000000000000000000000000000000000000000000000000000000000000000000000000000000000000000000000000000000000000000000000000000000000000000000000000000000000000000000000000000000000000000000000000000000000000000000000000000000000000000000000000000000000000000000000000000000000000000000000000000000000000000000000000000000000000000000000000000000000000000000000000000000000000000000000000000000000000000000000000000000000000000000000000000000000000000000000000000000000000000000000000000000000000000000000000000000000000000000000000000000000000000000000000000000000000000000000000000000000000000000000000000000000000000000000000000000000000000000000000000000000000120000000000000000000000000000000000000000000000000000000000000000000000000000000000000000000000000000000000000000000000000000000000000000000000000000000000000000000000000000000000000000000000000000000000000000000000000000000000000000000000000000000000000000000000000000000000000000000000000000000000000000000000000000000000000000000000000000000000000000000000000000000000000000000000000000000000000000000000000000000000000000000000000000000000000000000000000000000000000000000000000000000000000000000000000000000000000000000000000000000000000000000000000000000000000000000000000000000000000000000000000000000000000000000000000000000000000000000000000000000000000000000000000000000000000000000000000000000000000000000000000000000000000000000000000000000000000000000000000000000000000000000000000000000000000000000000000000000000000000000000000000000000000000000000000000000000000000000000000000000000000000000000000000000000000000000000000000000000000000000000000000000000000000000000000000000000000000000000000000000000000000000000000000000000000000000000000000000000000000000000000000000000000000000000000000000000000000000000000000000000000000000000000000000000000000000000000000000000000000000000000000000000000000000000000000000000000000000000000000000000000000000000000000000000000000000000000000000000000000000000000000000000000000000000000000000000000000000000000000000000000000000000000000000000000000000000000000000000000000000000121200000000000000000000000000000000000000000000000000000000000000000000000000000000000000000000000000000000000000000000000000000000000000000000000000000000000000000000000000000000000000000000000000000000000000000000000000000000000000000000000000000000000000000000000000000000000000000000000000000000000000000000000000000000000000000000000000000000000000000000000000000000000000000000000000000000000000000000000000000000000000000000000000000000000000000000000000000000000000000000000000000000000000000000000000000000000000000000000000000000000000000000000000000000000000000000000000000000000000000000000000000000000000000000000000000000000000000000000000000000000000000000000000000000000000000000000000000000000000000000000000000000000000000000000000000000000000000000000000000000000000000000000000000000000000000000000000000000000000000000000000000000000000000000000000000000000000000000000000000000000000000000000000000000000000000000000000000000000000000000000000000000000000000000000000000000000000000000000000000000000000000000000000000000000000000000000000000000000000000000000000000000000000000000000000000000000000000000000000000000000000000000000000000000000000000000000000000000000000000000000000000000000000000000000000000000000000000000000000000000000000000000000000000000000000000000000000000000000000000000000000000000000000000000000000000000000000000000000000000000000000000000000000000000000000000000000000000000000000000000
#01617:0013000013000000
#0161b:23000013000013000000000000001300
#01616:23000000000000000000141400001300
#01612:00131314
#0161a:00000014
#01614:00000000000000000000000000000013
#01610:41
#01712:13001300000013000000001300001600
#0171b:13131300
#01717:00130000000013000000130000000000
#01716:00000013000000001300000000000000
#01718:0000000000001613
#01715:00000000000000000000000013160000
#01817:0013000013000000
#01816:1300000000130000
#01819:00130000000000130000000000000000
#01812:0013130013000013
#0181b:1300001300131300
#01814:00000000000000000013000000000013
#01916:13
#0191b:1300001313000000
#01917:00130000
#01912:0013130013000000
#01914:00130000000000000000000000001300
#01919:00000000001300000000000000001300
#0231b:00131313
#02312:1300000023130013
#02317:23002300001300000000130000001300
#02316:00130000230023000000000013000000
#02314:00000000000000130000000000000000
#02319:00000013000000000000000000000000
#02418:00000013000000130000000000001300
#02415:00000000130013000000000000000013
#02412:23000000001300001300130013000000
#0241b:23001300000000001300000000130000
#02417:0000000000130000
#02410:41
#02612:14000000130000130000000000130000
#02615:00000013000013000000000000001300
#02618:00000000001300000000000000000013
#0261b:00131300
#02616:001414000000000000000000130000000000000000000000
#0261a:0014000000000000
#02617:00000000000000000000131300000000
#0271b:13000000002300001313000000000013
#02718:0013000000131313
#02715:00000013000000000000001300130000
#02712:00000000130000231300000013000000
#02716:13000000002300000000000000000000
#02717:00000000000000230000000000000000
#02812:23001300001300000000000013130000
#02818:00000013000000000000000000000013
#02815:0000000000000013000000000000000000000000000000000000000013000000
#0281b:23000000000000131300000000000000
#02817:0000000000000000000000000000000000000000001300000000000000000000
#02816:0000000000000000000000000013000000000000000000000000000000000000
#0281f:11
#02912:13001300000000001313000000000000
#0291b:13000000130000000000000013130000
#02918:0000000000000013
#02919:00130000000000000000000000000000
#02916:00000013000013000000000000000000
#02917:00000000001300000000130000000000
#02915:00000000000000000000000000000013
#03012:13000000130013131300001313000000
#03014:00130000000000000000000000000000
#0301b:13001313130000001300000013000013
#03019:00000000001300000000000000000000
#03017:0000001300000000
#03018:00000000000000000013000000001300
#03015:00000000000000000000130000130000
#03016:0013000000000000
#0311b:00000000130000000000000000131300
#03115:00130000000000130000000000000000
#0311a:00000013000000000000000000000000
#03118:00130000000000000000000000000000
#03119:0013000000000000
#03113:00000013000000000000000000000000
#03114:0013000000000000
#03112:0000130000130000
#03116:00000013
#03319:00000000000000130013000000000000
#0331b:0000000000130000
#03312:1200000023001313
#03316:00001200000000000000130000000013
#03318:00120000
#0331c:0000001200000000
#03314:00000000000000000000001300000000
#03317:00002313
#0331f:0021
#0321b:0013001300130013
#03212:23000000000000130000000013180000
#03216:00000000130000000013241824002418
#03214:0013
#03217:2300000000001300000000000000001300000000000000000000000000000000
#03414:00000000000000000013000000000013
#03417:00001300000013000000000000130000
#03419:00130000000000130000000000000000
#0341b:13000013000000001300130013000000
#03412:13001300130000001300001300000000
#03416:00000000001300000000130000001300
#03410:41
#0401b:23131313
#04017:0000000000000013
#04019:00000000000000000000000000000013
#04012:2300130013130013
#04014:00000000000000000000000000130000
#04018:00001300000000130000000000000000
#04015:00000013000013000000000000000000
#04010:41
#04114:00000000000000130000001300130000
#04116:00001313
#04117:0013001300130013
#0411b:13001313
#04119:00130000001300000000000000000013
#04112:1313131300000013
#04216:13
#04215:00000000000013000013000000130000
#04212:00001300130000131300000013001300
#04219:00000013000000000000000000000000
#0421b:13000000130000001300001313001300
#04218:00000000001300000000130000000013
#0441b:2313130013001300
#04416:0013000013001414
#04414:00000013000000000000000000000000
#04412:2300131300000000
#04419:00000000000000000000001300000000
#04417:0000001300130000
#0471c:1212
#04718:00120000
#04715:00000012
#04719:00000012
#04714:0012001200000000
#04712:2222
#04716:00220000
#0471a:0022002200000000
#00417:2313001300130013
#00412:2313001300130000
#0041b:00001313
#00414:00000000000000000000000000000013
#00416:00130013
#00419:00000000000000130000000000000000
#00410:41
#0101c:1212120012001200
#01017:0012121200121200
#01012:1200001200120000
#01016:0000000000000012
#01014:00000000000000000000000000000012
#01010:41
#03518:00130000000013000000000000000000
#0351b:13131300
#03515:00001300001300000000000000000000
#03512:1300130000000013
#03517:0000000000000013
#03514:00000000000000000000000000000013
#03516:0013
#03717:0013000013000000
#0371b:13000013000013000000001300000000
#03712:00000000130000001300000013130000
#03716:13
#03718:00000013
#03715:0000000000000013
#04512:14001400000000001400000000000013
#04516:00141414001414140000000000000000
#0451a:0000141400000000
#04515:00000000000000000000130000130000
#04518:00000000000000000000001300001300
#0451b:00000013
#01419:00000000000012000000001200000000
#01412:1212000000000000
#01415:00000000000000120000120000000000
#01417:00000000000000001200000012001212
#0141c:12
#0021c:1212
#00216:1212
#00212:00120012
#00218:00120012
#00016:1212
#0001c:1212
#00012:00120012
#00018:00120012
#01217:0012121200000000
#0121c:1200120012000012
#01218:0000000000120000
#0121a:00000000000000000000000012000012
#01212:1212001200120000
#01214:00000012
#01216:0000000000000012
#01318:12120000
#0131a:0000001200000000
#01314:00000000000012000000120000000012
#01316:0000000012000012
#0131c:0012000012000000
#01312:12000012
#01317:0012000000120000
#02016:00001300000000001300141400000000
#02012:23000013000013000000000014001300
#02017:2300000000000013
#0201b:00131300
#02019:00000000000000000000000000000013
#0201a:00000014
#0211b:13001300000013000000001300000000
#02112:13131316
#02116:00130000000013000000130000000000
#02117:00000013000000001300000000000000
#02118:0000000000001316
#02115:00000000000000000000000000161300
#02216:0013000013000000
#02217:1300000000130000
#02214:00130000000000130000000000000000
#0221b:0013130013000023
#02212:1300001300131300
#02219:00000000000000000013000000000013
#02512:13130013000013130000000013000000
#0251b:13130000000013130013000013000013
#02515:00000000130000000000001300130000
#02518:00000000001300000000130000001300
#03612:00001300000013000000131800001318
#03616:2300000000001300000000000000001300000000240000002400180024000000
#0361b:23000000000000130000000013000000
#03619:0013
#03617:00000000130000000013000000000000
#03819:00000000000000000013000000000013
#03816:00001300000013000000000000130000
#03814:00130000000000130000000000000000
#0381b:00001300130000001300001300000000
#03817:00000000001300000000130000001300
#03812:13000013000000001300130013000000
#03917:00130000130013000000000000001300
#03916:13001300001300001300130000000000
#0391b:1300000013000013
#03912:0000130000131300
#03914:00000018000000180000000000000000
#04318:00001300001300000000000000001300
#0431b:13000013130000130013000013000000
#04312:13000000130000130000001300000000
#04315:00130000000013000000000000000000
#04316:00000000000000000000000000130000
#0461c:1200000000120000
#04617:1212001212000000
#04612:0000121200000000
#04618:00000012
#04614:0000000000000012
#04616:00000022
#0461a:0000000000000022
#00516:1300130000000013
#00512:0013001300001300
#00514:00000013000000000000000000000000
#0051b:1300000013130013
#00517:0013001300001300
#00519:00000000000000130000001300000000
#00515:0000000000130000
#00652:53
#00657:00130000
#0065b:0063
#00656:00000013
#00857:00520000
#0085c:0000002200000000
#01752:1353005300000036
#01756:00000023000000002300000000000000
#01758:00000046
#0175b:63130000
#01757:00230000000000000000000000000000
#01857:0023000000000013
#01856:0000001300230000
#01852:00530000
#0185b:00000063
#0195b:0063
#01952:0053
#01955:00000000000000000000001300000000
#01958:00000013
#01656:6300001300000000
#01657:0053000023000000
#0165b:13000023000063000000000000000000
#01652:00530034
#0165a:00000044
#0235b:00631300
#02352:5313
#02356:00230000000000000000000000000000
#02357:00000000002300000000000000000000
#0285b:1353
#02852:13000000006300000000000000000000
#02857:0000000000000000000000000000000000000000002300000000000000000000
#02856:0000000000000000000000000023000000000000000000000000000000000000
#0315b:0000630000430000
#03155:00000000000000230000000000000000
#03152:0000000000530000
#03156:00000023
#02452:13
#0245b:1363
#02457:0000000000230000
#0335b:0000000000000013
#03352:0013
#03357:00000063
#03457:00006300000000000000000000230000
#03452:00000000530033000000002300000000
#03456:00000000002300000000530000000000
#0345b:00000023000000000000000063004300
#00757:53130000
#0075b:0023000013000000
#00752:1300000000230000
#00756:00006313
#02756:13
#0305b:00000000000000000000000000000013
#03257:1300000000002300000000000000002300000000000000000000000000000000
#03256:0000630000141414
#0325b:0063006300000000
#03252:53
#0355b:0063
#03556:0063
#03552:00000013
#03557:00000000000000000000001300000000
#03757:0053000023000000
#0375b:00000023000063000000000000000000
#03752:0013530000000000
#03756:5300001300000000
#03758:00000013
#03755:0000000000000013
#04152:13130000
#04157:0023000000000000
#04156:0023
#0415b:00001313
#04052:1300130000530000
#0405b:13006313
#0425b:23000013
#04252:00130000
#04552:5454340034000000
#04556:00240024002400240000000000000000
#0455a:4400646444000000
#0455b:00000013
#01057:00620000
#01052:0000002200000000
#01457:00001212
#0155c:6252
#01552:00526200
#01557:000000000000000000000000000000000000000000000000000000000000000000000000000000000000000000000000000000000000000000000000000000000000000000000000000000000000000000000000000000000000000000000000000000000000000000000000000000000000000000000000000000000000000000000000000000000000000000000000000000000000000000000000000000000000000000000000000000000000000000000000000000000000000000000000000000000000000000000000000000000000000000000000000000000000000000000000000000000000000000000000000000000000000000000000000000000000000000000000000000000000000000000000000000000000000000000000000000000000000000000000000000000000000000000000000000000000000000000000000000000000000000000000000000000000000000000000000000000000000000000000000000000000000000000000000000000000000000000000000000000000000000000000000000000000000000000000000000000000000000000000000000000000000000000000000000000000000000000000000000000000000000000000000000000000000000000000000000000000000000000000000000000000000000000000000000000000000000000000000000000000000000000000000000000000000000000000000000000000000000000000000000000000000000000000000000000000000000000000000000000000000000000000000000000000000000000000000000000000000000000000000000000000000000000000000000000000000000000000000000000000000000000000000000000000000000000000000000000000000000000000000000000000000000000000000000000000000000000000000000000000000000000000000000000000000000000000000000000000000000000000000000000000000000000000000000000000000000000000000000000000000000000000000000000000000000000000000000000000000000000000000000000000000000000000000000000000000000000000000000000000000000000000000000000000000000000000000000000000000000000000000000000000000000000000000000000000000000000000000000000000000000000000000000000000000000000000000000000000000000000000000000000000000000000000000000000000000000000000000000000000000000000000000000000000000000000000000000000000000000000000000000000000000000000000000000000000000000000000000000000000000000000000000000000000000000000000000000000000000000000000000000000000000000000000000000000000000000000000000000000000000000000000000000000000000000000000000000000000000000000000000000000000000000000000000000000000000000000000000000000000000000000000000000000000000000000000000000000000000000000000000000000000000000000000000000000000000000000000000000000000000000000000000000000000000000000000000000000000000000000000222200000000000000000000000000000000000000000000000000000000000000000000000000000000000000000000000000000000000000000000000000000000000000000000000000000000000000000000000000000000000000000000000000000000000000000000000000000000000000000000000000000000000000000000000000000000000000000000000000000000000000000000000000000000000000000000000000000000000000000000000000000000000000000000000000000000000000000000000000000000000000000000000000000000000000000000000000000000000000000000000000000000000000000000000000000000000000000000000000000000000000000000000000000000000000000000000000000000000000000000000000000000000000000000000000000000000000000000000000000000000000000000000000000000000000000000000000000000000000000000000000000000000000000000000000000000000000000000000000000000000000000000000000000000000000000000000000000000000000000000000000000000000000000000000000000000000000000000000000000000000000000000000000000000000000000000000000000000000000000000000000000000000000000000000000000000000000000000000000000000000000000000000000000000000000000000000000000000000000000000000000000000000000000000000000000000000000000000000000000000000000000000000000000000000000000000000000000000000000000000000000000000000000000000000000000000000000000000000000000000000000000000000000000000000000000000000000000000000000000000000000000000000000000000000000000000000000000000000000000000000000000000000000000000000000000000000000000000000000000000
#0095c:62
#00957:0022000000220000
#00952:0052
#01158:0012
#01156:0012
#01157:52
#0115c:0022000000000000
#01257:00620000
#01252:0000002200000000
#01352:52
#01357:0022000000220000
#0135c:0062
#02056:0063000023000000
#02052:13000023000053000000000034000000
#0205b:00630000
#0205a:00000044
#02057:5300001300000000
#0215b:1363006300000000
#02157:00000023000000002300000000000000
#02152:53130036
#02156:00230000000000000000000000000000
#02158:0000000000000046
#02256:0023000000000013
#0225b:00630000
#02257:0000001300230000
#02252:00000053
#03652:0053005300000000
#03656:1300000000002300000000000000002300000000140000001400000014000000
#03657:00530000
#0365b:63
#03856:00005300000000000000000000230000
#0385b:00000000630043000000002300000000
#03857:00000000002300000000630000000000
#03852:00000023000000000000000053003300
#03957:00230000000000000000000000006300
#0395b:5343000063000000
#03956:00000000002300000000530000000000
#03952:0000633300005300
#04352:00000000130000230000002300000000
#0435b:00000000000000000023000013000000
#04356:00000000000000000000000000630000
#0445b:13000013
#04452:1300136300000000
#04456:0000000023002424
#0465c:62
#04657:0022000022000000
#04652:0000005200000000
#0255b:00630000000000000000000000000000
#02552:00000000000000530000000000000000
#0045b:00000013
#00456:00130053
#00452:0000006300000000
#00457:0063000000000000
#00556:13631300
#0055b:63431300
#00557:0023000000001300
#00552:0000002300001300
#02656:0063
#02657:00000000000000000000005300000000
#003320:0000000000120000
#003360:00000022
#0033c1:00000012
#003381:0000000000000022
#004371:0013000000000000
#0043b1:00230000
#004321:0000001300000000
#004361:0023
#004361:00000013
#004321:0000000000000023
#0053b1:13230000
#005371:0053000000000000
#005360:00132300
#005320:0000005300000000
#006320:13
#006360:0023000000000000
#0063b0:0013
#006370:0000000000230000
#007370:13230000
#0073b0:0053000000000000
#007360:00001323
#007320:0000000000530000
#008370:00122200
#0083c0:0000005200000000
#0093c0:12220000
#009370:0052000000000000
#009320:00001222
#009370:0000000000520000
#010370:00122200
#010320:0000005200000000
#011370:12220000
#0113c0:0052000000000000
#012370:00122200
#012320:0000005200000000
#013320:12220000
#013370:0052000000000000
#0133c0:00001222
#013370:0000000000520000
#014370:0012000000000000
#0143c0:00220000
#014371:00120000
#014321:0000002200000000
#0143c1:0000000012220000
#014321:0000000000001222
#0153c1:12
#015371:0022000000000000
#015321:00120000
#015371:0000002200000000
#0153c1:00001222
#015371:0000000000520000
#015320:00001222
#015370:000000000000000000000000000000000000000000000000000000000000000000000000000000000000000000000000000000000000000000000000000000000000000000000000000000000000000000000000000000000000000000000000000000000000000000000000000000000000000000000000000000000000000000000000000000000000000000000000000000000000000000000000000000000000000000000000000000000000000000000000000000000000000000000000000000000000000000000000000000000000000000000000000000000000000000000000000000000000000000000000000000000000000000000000000000000000000000000000000000000000000000000000000000000000000000000000000000000000000000000000000000000000000000000000000000000000000000000000000000000000000000000000000000000000000000000000000000000000000000000000000000000000000000000000000000000000000000000000000000000000000000000000000000000000000000000000000000000000000000000000000000000000000000000000000000000000000000000000000000000000000000000000000000000000000000000000000000000000000000000000000000000000000000000000000000000000000000000000000000000000000000000000000000000000000000000000000000000000000000000000000000000000000000000000000000000000000000000000000000000000000000000000000000000000000000000000000000000000000000000000000000000000000000000000000000000000000000000000000000000000000000000000000000000000000000000000000000000000000000000000000000000000000000000000000000000000000000000000000000000000000000000000000000000000000000000000000000000000000000000000000000000000000000000000000000000000000000000000000000000000000000000000000000000000000000000000000000000000000000000000000000000000000000000000000000000000000000000000000000000000000000000000000000000000000000000000000000000000000000000000000000000000000000000000000000000000000000000000000000000000000000000000000000000000000000000000000000000000000000000000000000000000000000000000000000000000000000000000000000000000000000000000000000000000000000000000000000000000000000000000000000000000000000000000000000000000000000000000000000000000000000000000000000000000000000000000000000000000000000000000000000000000000000000000000000000000000000000000000000000000000000000000000000000000000000000000000000000000000000000000000000000000000000000000000000000000000000000000000000000000000000000000000000000000000000000000000000000000000000000000000000000000000000000000000000000000000000000000000000000000000000000000000000000000000000000000000000000000000000000000005200000000000000000000000000000000000000000000000000000000000000000000000000000000000000000000000000000000000000000000000000000000000000000000000000000000000000000000000000000000000000000000000000000000000000000000000000000000000000000000000000000000000000000000000000000000000000000000000000000000000000000000000000000000000000000000000000000000000000000000000000000000000000000000000000000000000000000000000000000000000000000000000000000000000000000000000000000000000000000000000000000000000000000000000000000000000000000000000000000000000000000000000000000000000000000000000000000000000000000000000000000000000000000000000000000000000000000000000000000000000000000000000000000000000000000000000000000000000000000000000000000000000000000000000000000000000000000000000000000000000000000000000000000000000000000000000000000000000000000000000000000000000000000000000000000000000000000000000000000000000000000000000000000000000000000000000000000000000000000000000000000000000000000000000000000000000000000000000000000000000000000000000000000000000000000000000000000000000000000000000000000000000000000000000000000000000000000000000000000000000000000000000000000000000000000000000000000000000000000000000000000000000000000000000000000000000000000000000000000000000000000000000000000000000000000000000000000000000000000000000000000000000000000000000000000000000000000000000000000000000000000000000000000000000000000000000000000000000000000000
#016360:13
#016320:0023000000000000
#016371:0013230000000000
#0163b1:00000053000000000000000000000000
#016320:00130000
#016360:0000002300000000
#0163b1:0000001300230000
#016371:0053
#0173b1:1323000000000000
#017371:00530000000000000000000000000000
#017320:0013230000000000
#017360:00000053000000000000000000000000
#017320:0000001300230000
#017360:0053
#018370:0013000000000000
#0183b0:00230000
#018321:00130000
#018361:0000002300000000
#018361:0000000000130000
#018321:00000023
#0183b0:00000013
#018370:0000000000000023
#0193b0:0013
#019380:0000000000532300
#019321:0013
#019351:00000000000000000000532300000000
#020370:13
#0203b0:0023000000000000
#020361:0013230000000000
#020321:00000053000000000000000000000000
#0203b0:00130000
#020370:0000002300000000
#020321:0000001300230000
#020361:0053
#021321:1323000000000000
#021361:00530000000000000000000000000000
#0213b0:0013230000000000
#021370:00000053000000000000000000000000
#0213b0:0000001300230000
#021370:0053
#022360:0013000000000000
#022320:00230000
#0223b1:00130000
#022371:0000002300000000
#022371:0000000000130000
#0223b1:00000023
#022320:00000013
#022360:0000000000000023
#023320:1323000000000000
#023360:00530000000000000000000000000000
#0233b0:0000132300000000
#023370:00000000005300000000000000000000
#0243b0:00001323
#024370:0000000000530000
#0253b0:00130000000000000000000000000000
#025370:00005323000000000000000000000000
#025320:00000000000000130000000000000000
#025360:00000000000000005323000000000000
#026360:0013
#026320:00000000000000000000332300000000
#026371:00000000000000000000001300000000
#0263b1:00000000000000000000000000230000
#0283b1:00000000132300000000000000000000
#028320:00000000001300002300000000000000
#028360:0000000000000000000000000053000000000000000000000000000000000000
#0283b1:00000000000000001300000000230000
#028371:0000000000000000000000000000000000000000005300000000000000000000
#029371:0013000000000000
#0293b1:00000023000000000000000000000000
#029361:00130000
#029321:00000000002300000000000000000000
#0293b1:0000001300000000
#029371:0023
#029321:0000000000130000
#029361:00000023
#0313b1:0000130000230000
#031351:00000000000000530000000000000000
#031320:0000000000130023
#031360:00000053
#032320:13
#032360:0023000000000000
#0323b1:0013230000000000
#032371:00000053000000000000000000000000
#032360:00130000
#032320:0000002300000000
#0323b1:00000000000013000023000000000000
#032371:0000000000000000000000000000005300000000000000000000000000000000
#0333c1:12
#033381:0022000000000000
#033361:00120000
#033321:0000002200000000
#033371:00000013
#0333b1:0000000000000023
#034371:0013230000000000
#0343b1:00000053000000000000000000000000
#034320:0000132300000000
#034360:00000000005300000000000000000000
#034360:0000000000132300
#034320:00000000000000000000005300000000
#0343b1:0000000000001323
#034371:00000000000000000000000000530000
#0353b1:0013
#035371:00000000000000000000532300000000
#035360:0013
#035320:0000000000532300
#0363b0:13
#036370:0023000000000000
#036321:0013230000000000
#036361:00000053000000000000000000000000
#036370:00130000
#0363b0:0000002300000000
#036321:00000000000013000023000000000000
#036361:0000000000000000000000000000005300000000000000000000000000000000
#037361:13
#037321:0023000000000000
#037370:0013230000000000
#0373b0:00000053000000000000000000000000
#037321:00130000
#037361:0000002300000000
#0373b0:0000001300230000
#037370:0053
#037351:00000000000000000000132300000000
#0373b1:0000000000000013
#0383b1:23
#038361:0013230000000000
#038321:00000053000000000000000000000000
#0383b0:0000132300000000
#038370:00000000005300000000000000000000
#038370:0000000000132300
#0383b0:00000000000000000000005300000000
#038321:0000000000001323
#038361:00000000000000000000000000530000
#0393b1:1323000000000000
#039371:00530000000000000000000000000000
#039321:0000132300000000
#039361:00000000005300000000000000000000
#0393b1:00001323
#039361:0000000000330000
#039320:00000013
#039370:0000000000000033
#040320:23
#0403b0:0013
#040370:0000000000230000
#040321:0000000000130000
#040361:00000023
#041371:0013000000000000
#0413b1:00230000
#041361:0013
#041321:0000000000230000
#0423b1:13
#042371:0023000000000000
#043321:00000000000000130000000000000000
#043361:00000000000000000023000000000000
#0433b0:00000000000000000013000000000000
#043370:00000000000000000000002300000000
#043321:00000000000000000000001300000000
#043361:00000000000000000000000000330000
#044321:23
#044321:0000001300230000
#044361:0053
#044361:00000014
#044321:0000000000000024
#044360:0000000000000014
#0453a0:24
#045321:1434240000000000
#045361:00540054000000000000000000000000
#0453a0:0000143424000000
#045360:00000000005400540000000000000000
#0463c0:12220000
#046370:0052000000000000
#046320:0000001200220000
#046370:0052
