This file was generated by Ched 2.6.4.0.
#TITLE ""
#ARTIST ""
#DESIGNER "hard"
#DIFFICULTY 0
#PLAYLEVEL
#SONGID ""
#WAVE ""
#WAVEOFFSET 0
#JACKET ""
#REQUEST "ticks_per_beat 480"
#00002: 4
#BPM01: 80
#00008: 01
#TIL00: ""
#HISPEED 00
#MEASUREHS 00
#0001a:1414
#00012:00140014
#00118:1414
#00114:00140014
#0021a:1414
#00212:00140014
#00318:1414
#00314:00140014
#0041a:14140000
#00412:00001414
#00410:41
#00514:00001414
#00518:14140000
#0061a:14140000
#00612:00001414
#00714:00001414
#00718:14140000
#0081a:1414
#00814:00140014
#00918:1414
#00912:00140014
#0101a:14
#01014:00140000
#01018:0014
#01012:00000014
#01010:41
#01118:14
#01114:00140000
#0111a:0014
#01212:1414
#01218:00140014
#01314:1414
#0131a:00140014
#01412:14
#01418:00140000
#01414:0014
#0141a:00000014
#01514:14
#01518:00140000
#01512:0014
#01612:00140000
#01618:0014
#01614:00000014
#0161a:24
#01610:41
#0171a:14000014
#01712:00140000
#01716:0014
#0201a:00140000
#02014:0014
#02018:00000014
#02012:24
#02112:14000014
#0211a:00140000
#02116:0014
#03214:00140000
#0321a:0014
#03212:00000014
#03218:24
#0331a:14000014
#03312:1424
#0331f:0021
#03618:00140000
#03612:0014
#0361a:00000014
#03614:24
#03712:14
#03716:00140014
#0371a:0014
#04512:14
#04516:00140000
#0451a:0014
#0441a:00140000
#04414:0014
#04418:00000014
#04412:24
#04014:14
#0401a:00000014
#04012:0014
#04018:00140000
#04010:41
#04318:00000014
#04312:0014
#0431a:00140000
#04314:14
#0421a:00000014
#04214:0014
#04218:00140000
#04212:14
#04116:00140014
#0411a:0014
#04112:14
#01812:14
#0181a:0014
#01914:14
#01918:0014
#0221a:14
#02212:0014
#02318:14
#02314:0014
#03412:14
#0341a:0014
#03418:14
#03414:0014
#03410:41
#03512:1400000000140000
#03518:1400000000140000
#0351a:0014000014000000
#03514:0014000014000000
#0391a:1400000000140000
#03914:1400000000140000
#03912:0014000014000000
#03918:0014000014000000
#03812:0014
#03818:0014
#0381a:14
#03814:14
#0471a:14
#04716:00140000
#04612:14
#04616:0000001400000000
#0281f:11
#02410:41
#0115a:0014
#01552:0014
#03352:0014
#01852:54
#0185a:0064
#01954:64
#01958:0054
#0225a:64
#02252:0054
#02358:54
#02354:0064
#03452:54
#0345a:0064
#03458:54
#03454:0064
#03552:5400000000240000
#03558:5400000000240000
#0355a:0024000064000000
#03554:0024000064000000
#0395a:6400000000240000
#03954:6400000000240000
#03952:0024000054000000
#03958:0024000054000000
#03852:0054
#03858:0054
#0385a:64
#03854:64
#04752:00000014
#04652:54
#04656:0000002400000000
#018320:14
#018340:00240000
#0183a0:0014
#018380:00000024
#019340:14
#019320:00240000
#019380:0014
#0193a0:00000024
#0223a0:14
#022380:00240000
#022320:0014
#022340:00000024
#023380:14
#0233a0:00240000
#023340:0014
#023320:00000024
#0243a0:14000024
#024380:00343400
#025320:14000024
#025340:00343400
#026380:14000024
#0263a0:00343400
#027340:14000024
#027320:00343400
#0283a0:1434
#028380:00340024
#029320:1434
#029340:00340024
#030380:1434
#0303a0:00340024
#031340:1434
#031320:00340024
#034320:14
#034340:00240000
#034381:14
#0343a1:00240000
#0343a1:0014
#034381:00000024
#034340:0014
#034320:00000024
#035320:14240000
#035340:0054000000000000
#035381:14240000
#0353a1:0054000000000000
#0353a1:00001424
#035381:0000000000540000
#035340:00001424
#035320:0000000000540000
#0383a0:14
#038380:00240000
#038341:14
#038321:00240000
#038321:0014
#038341:00000024
#038380:0014
#0383a0:00000024
#0393a0:14240000
#039380:0054000000000000
#039341:14240000
#039321:0054000000000000
#039321:00001424
#039341:0000000000540000
#039380:00001424
#0393a0:0000000000540000
#046320:14000024
#046360:0000005400000000
#047320:00001424
