This file was generated by Ched 2.7.0.0.
#TITLE ""
#ARTIST ""
#DESIGNER ""
#DIFFICULTY 0
#PLAYLEVEL
#SONGID ""
#WAVE ""
#WAVEOFFSET 0
#JACKET ""
#REQUEST "ticks_per_beat 480"
#00002: 4
#BPM01: 140
#BPM02: 138
#BPM03: 135
#BPM04: 130
#BPM05: 125
#BPM06: 120
#BPM07: 110
#00008: 01
#07608: 0203
#07708: 04050607
#TIL00: ""
#HISPEED 00
#MEASUREHS 00
#0001a:00000014
#00114:00000014
#00218:00000014
#00312:00000014
#0171a:14
#01710:41
#01814:14
#01918:14
#02012:14
#02118:14
#02214:14
#02512:14
#02510:41
#02618:14
#02714:14
#0281a:14
#02914:14
#03018:14
#05212:0016
#0521f:21
#05318:16
#05312:0016
#05310:41
#05618:16
#05612:0016
#05718:16
#05712:0016
#05818:16
#05812:0016
#06018:0016
#06012:26
#06112:16
#06118:0016
#06412:16
#06418:0016
#06512:16
#06518:0016
#06612:16
#06618:0016
#06918:14
#07014:14
#0711a:14
#0411f:11
#05119:24
#07412:34
#07312:34
#0771a:3434
#0761a:0034
#00910:41
#03310:41
#06810:41
#0053a0:14
#0063a0:24
#007340:14
#008340:24
#009380:14
#010380:24
#011320:14
#012320:24
#013390:14
#014390:24
#015330:14
#016330:24
#0233a0:14
#0243a0:24
#031320:14
#032320:24
#0333a0:14
#034380:34
#0353a0:34
#036380:24
#037320:14
#038340:34
#039320:34
#040340:24
#041380:14
#0423a0:34
#043380:34
#0443a0:24
#045340:14
#046320:34
#047340:3400003400003400
#049340:24
#051390:14
#052380:26
#054380:1626
#055320:1626
#059380:1626
#062320:1626
#063380:1626
#067320:1636
#068320:26
#072320:14
#073320:34
#074320:34
#075340:24
#0763a0:1434
#0773a0:3434
#078380:34
#080380:24
