This file was generated by Ched 2.7.0.0.
#TITLE ""
#ARTIST ""
#DESIGNER ""
#DIFFICULTY 0
#PLAYLEVEL
#SONGID ""
#WAVE ""
#WAVEOFFSET 0
#JACKET ""
#REQUEST "ticks_per_beat 480"
#00002: 4
#BPM01: 140
#BPM02: 138
#BPM03: 135
#BPM04: 130
#BPM05: 125
#BPM06: 120
#BPM07: 110
#00008: 01
#07608: 0203
#07708: 04050607
#TIL00: ""
#HISPEED 00
#MEASUREHS 00
#00215:00001313
#00218:00000013
#00512:16
#0051b:0013000000000000
#0051a:0000130000000013
#00519:0000001300001300
#00518:2600000000130000
#0061b:0013000000000013
#00619:00130013
#00617:0000001300130000
#00718:16
#00712:0013000000000000
#00713:0000130000000013
#00714:0000001300001300
#00715:0000000000130000
#00812:0013000000000013
#00814:00130013
#00816:0000001300130000
#0091a:24141414
#00912:23
#00910:41
#0111a:14141414
#0101a:14141414
#01212:1313
#01216:00130013
#0121a:24242424
#0161b:1313
#01617:00130013
#01612:24242424
#0171b:00130000
#01718:0000001300000000
#01715:0013
#01712:24
#0171a:24
#01710:41
#0191b:00130000
#01915:0000001300000000
#01918:0013
#0211b:00130000
#02118:0000001300000000
#02115:0013
#02316:00000000001400000000000000001300
#0231b:0000000000000023
#02414:1323
#02412:0013002300000000
#02417:0023001300000000
#02419:2313
#0241b:0000000000130000
#02416:0000000000230000
#02512:24130000
#02515:0000001300000000
#02518:0013
#0251a:24
#02510:41
#02712:00130000
#02718:0000001300000000
#02715:0013
#02912:00130000
#02915:0000001300000000
#02918:0013
#03116:00000000001400000000000000000000
#03117:0000000000000013
#03112:0000000000000023
#0321b:13230000
#03216:23130000
#03212:0000001300140000
#0321a:0000000000140000
#03217:0000002300000000
#03315:0000131300000000
#0331b:00000013
#03312:13
#03310:41
#03412:0013000000000000
#03415:00130000
#03418:0000001300002300
#03516:00130000
#03514:0000001300000000
#03512:13
#03612:0013000000002300
#03615:00130000
#03618:0000001300000000
#0371b:00130000
#03719:0000001300000000
#03712:0013
#03718:13
#0381b:0013000000002300
#03818:00130000
#03815:0000001300000000
#03917:0000001300000000
#03916:23000013
#0391b:23000013
#03912:0000002300000000
#04017:0013000000000000
#04012:0013000000000000
#05416:1300001300000000
#0541b:13
#05412:0000000013000013
#05417:0000000013000013
#0521b:0000000013000013
#05216:0000000013000013
#05217:0000001300000000
#05212:2c00001300000000
#0521f:21
#05312:0013000000130000
#05317:0013000000130000
#05316:0000001313000000
#0531b:0000001313000000
#05310:41
#05617:0013001300130013
#0561b:1313
#05612:0000001300130013
#05616:00131300
#0551b:13
#05518:0013000000000000
#05515:00130000
#05512:0000001300000000
#05513:00000000000000000000003300000033
#05519:00000000000000000033000000330000
#0571b:0013000000130000
#05716:0013000000130000
#05712:0000001313000000
#05717:0000001313000000
#05812:1600000000130000
#05818:16
#05814:00000013
#05816:0000000000000013
#05817:0000000000130000
#05819:00000013
#0581b:0000000000000013
#05918:1313000013130000
#05915:00130013000000000013001300000000
#0591b:0000131300001313
#05912:00000000001300130000000000130013
#06416:0013001300130013
#06412:1313
#0641b:0000001300130013
#06417:00131300
#06312:13
#06315:0013000000000000
#06318:00130000
#0631b:0000001300000000
#0631a:00000000000000000000003300000033
#06314:00000000000000000033000000330000
#06512:0013000000130000
#06517:0013000000130000
#0651b:0000001313000000
#06516:0000001313000000
#06616:00140000
#06612:2400002400140000
#06613:00000014
#0661a:2400002400140000
#06619:00000014
#06614:0000000000000014
#06618:0000000000000014
#06716:12
#06718:12333333333333333333333333333333
#06715:00333333333333333333333333333333
#06815:00160000
#06818:16
#06812:0015
#0681a:00000014
#06810:41
#06915:15000015
#0691a:00140000
#0691b:13000013
#06912:0015
#06918:0026
#07016:0014
#0701a:14
#07012:00141314
#07112:16
#07115:00000013
#07118:0013
#0711b:00130000
#0721b:13000013
#07217:00130000
#07219:0013
#0731b:13
#07412:12000012
#07416:00120000
#07414:0012
#07512:12
#07812:12
#0781c:12
#00312:00000013
#0041b:00130000
#01312:24141414
#0131b:23
#01512:14141414
#01412:14141414
#05017:12120000
#05013:0022
#0501b:0022
#06217:1300001300000000
#06212:13
#0621b:0000000013000013
#06216:0000000013000013
#06016:0000001300000000
#0601b:0000001300000000
#06017:0000000013000013
#06012:0000000013000013
#06018:26
#0761c:12
#07612:12
#07614:00120000
#07616:0012
#07618:00000012
#0771a:12
#07718:00120000
#07716:0012
#07714:00000012
#0611b:0013000000130000
#06116:0013000000130000
#06117:0000001313000000
#06112:0000001313000000
#04118:0000131300000000
#04112:00000013
#0411b:13
#0411f:11
#0421b:0013000000000000
#04218:00130000
#04215:0000001300002300
#04317:00130000
#04319:0000001300000000
#0431b:13
#0441b:0013000000002300
#04418:00130000
#04415:0000001300000000
#04512:00130000
#04514:0000001300000000
#0451b:0013
#04515:13
#04612:0013000000002300
#04615:00130000
#04618:0000001300000000
#0201b:0000000000000023
#0181b:0000000000000023
#0221a:0000000000000024
#02816:0000000000000023
#02612:0000000000000023
#04712:2300002c
#04717:23
#0471b:0000002300000000
#04716:0000002300000000
#04913:0022
#0491b:0022
#03012:0000000000000024
#05116:0000340034003400340034003434343434003400340034003400340034003400
#00258:00000063
#00255:00000063
#00552:66
#00758:56
#01856:0000000000000013
#02056:0000000000000013
#02356:00000000002400000000000000000000
#0225a:0000000000000054
#03156:00000000002400000000000000000000
#02657:0000000000000013
#0285b:0000000000000013
#03252:0000000000140000
#0325a:0000000000140000
#03956:00000063
#0395b:63000063
#03957:0000002300000000
#03952:0000002300000000
#04057:0023000000000000
#04052:0023000000000000
#04752:6300006c
#04757:63
#0475b:0000005300000000
#04756:0000005300000000
#05456:53
#0545b:53
#05452:0063
#05457:0053
#0525b:0000000053000013
#05256:0053
#05252:1c
#05352:0013000000230000
#0535b:0053
#05356:0053
#05357:0000000000230000
#05657:0023000000230013
#0565b:5353
#05652:0000000000230013
#05656:0053
#0575b:0013000000230000
#05756:0013000000230000
#05757:0063
#05752:0063
#05852:66
#05858:56
#06456:0023000000230013
#06452:6363
#0645b:0000000000230013
#06457:0063
#06552:0013000000230000
#06557:0013000000230000
#06556:0053
#0655b:0053
#06654:0000000000000064
#06658:0000000000000054
#06756:22
#06758:22
#06855:00260000
#06858:56
#06852:1665
#06955:25000025
#06952:0065
#07056:0024
#0705a:54
#07558:0012
#07852:52
#0785c:62
#00352:00000053
#0045b:00530000
#06058:16
#06057:0063
#06052:0000000063000013
#06257:63
#06252:63
#0625b:0053
#06256:0063
#0615b:0013000000230000
#06152:0063
#06157:0063
#06156:0000000000230000
#03052:0000000000000064
#03458:00000013
#03652:00000013
#0385b:00000013
#04255:00000013
#0445b:00000013
#04652:00000013
#0003b0:00000013
#0013b0:00230000
#001351:00130023
#001380:00000013
#002380:0023
#002350:00000013
#003320:00230000
#002381:00000013
#0033b1:00230000
#003321:00000013
#004361:00230000
#0043b0:00130000
#004370:00000000000000000000000000000000000000000000000000000000000000530053000000530053000000530053000023000000000000000000000000000000
#004350:00000000000000005700005700000000
#004340:0000000000000000000000000000000000000059000000000000000000000000
#005320:16
#007320:22
#007381:16
#0083c1:0000000000000022
#009321:0013000000000000
#009341:00330000
#009361:0000002300000000
#009361:0000000000130000
#009341:00000033
#009321:0000000000000023
#010321:0013000000000000
#010341:00330000
#010361:0000002300000000
#010361:0000000000130023
#010331:00000033
#011321:0013002300000000
#011351:00330000
#011361:0000000000130023
#011331:00000033
#0133b1:0013000000000000
#013391:00330000
#013371:0000002300000000
#013371:0000000000130000
#013391:00000033
#0133b1:0000000000000023
#0143b1:0013000000000000
#014391:00330000
#014371:0000002300000000
#014371:0000000000130023
#0143a1:00000033
#0153b1:0013002300000000
#015381:00330000
#015371:0000000000130023
#0153a1:00000033
#017321:0000000000130023
#017370:0000000000000013
#018370:0023000000000000
#018341:0013002300000000
#018390:0000001300230000
#018361:0000000000130023
#019321:0000000000130000
#019361:00000000000000000000005300002300
#0193b0:0000000000000013
#019370:00000000000000000000000000000053
#020370:0023000000000000
#020321:0013000000000000
#020361:00000053000023000000000000000000
#0203b0:0000001300000000
#020370:00000000000000530000230000000000
#020321:0000000000130000
#020361:00000000000000000000005300002300
#021321:0000000000130023
#021361:00000000000000000000005300530000
#021370:0000000000000013
#0213b0:00000000000000000000000000000053
#0223b0:00530000000000000000000000000000
#022370:0023000000000000
#022321:0013002300000000
#022361:00000053005300000000000000000000
#022370:0000001300230000
#0223b0:00000000000000530053000000000000
#022321:0000000000130023
#022361:00000000000000000000005300530000
#0223a0:0000000000000014
#023360:00000000005400000000000000000000
#0233a0:00000024
#0253b0:0000000000130023
#025361:0000000000000013
#026361:0023000000000000
#026390:0013002300000000
#026341:0000001300230000
#026370:0000000000130023
#027370:0000000000130000
#0273b0:00000000000000000000005300002300
#027361:0000000000000013
#027321:00000000000000000000000000000053
#028321:0023000000000000
#028370:0013000000000000
#0283b0:00000053000023000000000000000000
#028361:0000001300000000
#028321:00000000000000530000230000000000
#028370:0000000000130000
#0283b0:00000000000000000000005300002300
#0293b0:0000000000130023
#029370:00000000000000000000005300530000
#029361:0000000000000013
#029321:00000000000000000000000000000053
#030321:00530000000000000000000000000000
#030361:0023000000000000
#0303b0:0013002300000000
#030370:00000053005300000000000000000000
#030361:0000001300230000
#030321:00000000000000530053000000000000
#0303b0:0000000000130023
#030370:00000000000000000000005300530000
#030321:0000000000000014
#031361:00000000005400000000000000000000
#031321:00000024
#0333b1:13
#033381:00530000000000002300000000000000
#033350:0013
#033320:00000000000000000053000000002300
#033381:0000000000000013
#034381:00230000
#0343b1:0013
#034381:00000000000000000053330023000000
#034350:0013
#034320:00000000000000000053000023000000
#035380:13
#0353b0:00530000000000002300000000000000
#035321:0013
#035351:00000000000000000053000000002300
#035380:0000000000000013
#0353b0:00000000000000000000000000000053
#0363b0:0023000000000000
#0363b0:0013
#036380:00000000000000000053000023000000
#036351:0013
#036321:00000000000000000053330023000000
#037321:13
#037351:00530000230000000000000000000000
#037371:0013
#0373b1:00000000000000000053000000002300
#037360:0000000000000013
#037320:00000000000000000000000000000053
#038320:0023000000000000
#038320:0013
#038350:00000000000000000053000023000000
#038381:0013
#0383b1:00000000000000000053330023000000
#0393b1:13000033
#039371:0000005300000000
#040371:0053000000000000
#0403b1:0023
#039320:0000001300000000
#039360:00000033
#040320:0053000000000000
#040360:0023
#041320:13
#041350:00530000000000002300000000000000
#041381:0013
#0413b1:00000000000000000053000000002300
#041350:0000000000000013
#042350:00230000
#042320:0013
#042350:00000000000000000053330023000000
#042381:0013
#0423b1:00000000000000000053000023000000
#043351:13
#043321:00530000000000002300000000000000
#0433b0:0013
#043380:00000000000000000053000000002300
#043351:0000000000000013
#043321:00000000000000000000000000000053
#044321:0023000000000000
#044321:0013
#044351:00000000000000000053000023000000
#044380:0013
#0443b0:00000000000000000053330023000000
#0453b0:13
#045380:00530000230000000000000000000000
#045360:0013
#045320:00000000000000000053000000002300
#045371:0000000000000013
#0453b1:00000000000000000000000000000053
#0463b1:0023000000000000
#0463b1:0013
#046381:00000000000000000053000023000000
#046350:0013
#046320:00000000000000000053330023000000
#047320:13
#047360:00230000
#047371:13
#0473b1:00230000
#0473b1:0000001300000000
#047371:0000000000230000
#047360:0000001300000000
#047320:0000000000230000
#047320:0000001c
#049370:22
#051360:1400340034003400340034003434343434003400340034003400340034003400
#052320:2c
#0523b0:0013
#052370:00000023
#052361:0013
#052321:00000023
#053361:00001323
#053321:0000000000530000
#0533b0:00001323
#053370:0000000000530000
#0543b0:1300003300002300
#054370:00333300
#054361:13
#054321:00230000
#054321:0013
#054361:00000023
#0553b1:0013
#055391:00000000000000000033000000000000
#055381:0000000000230000
#055350:0000000000130000
#055330:00000000000000000000003300000000
#055320:00000023
#0553b1:00000013
#055391:00000000000000000000000000330000
#055381:0000000000000023
#055350:0000000000000013
#055330:00000000000000000000000000000033
#056320:23
#0563b1:13230000
#056371:0053000000000000
#056361:00001323
#056321:0000000000530000
#0563b0:00001323
#056370:0000000000530000
#057370:00001323
#0573b0:0000000000530000
#057321:00001323
#057361:0000000000530000
#058321:16
#058351:0023
#058380:1623
#060320:0013
#060360:00000023
#060371:0013
#0603b1:00000023
#061371:00001323
#0613b1:0000000000530000
#061320:00001323
#061360:0000000000530000
#062320:1300003300002300
#062360:00333300
#062371:13
#0623b1:00230000
#0623b1:0013
#062371:00000023
#063321:0013
#063341:00000000000000000033000000000000
#063351:0000000000230000
#063380:0000000000130000
#0633a0:00000000000000000000003300000000
#0633b0:00000023
#063321:00000013
#063341:00000000000000000000000000330000
#063351:0000000000000023
#063380:0000000000000013
#0633a0:00000000000000000000000000000033
#0643b0:23
#064321:13230000
#064361:0053000000000000
#064371:00001323
#0643b1:0000000000530000
#064320:00001323
#064360:0000000000530000
#065360:00001323
#065320:0000000000530000
#0653b1:00001323
#065371:0000000000530000
#066341:0000000000000014
#067361:52
#067351:00333333333333333333333333333333
#068321:26
#066380:0000000000000014
#067380:52333333333333333333333333333333
#068380:3626
#068350:00560000
#068321:0015
#069351:55000055
#069321:0035
#070321:25
#0703a0:14
#070360:0054
#0713a0:24
#072320:13000033
#073320:33
#073360:00530000000000002300000000000000
#0743c0:12
#0753c0:32
#075380:00520000000000002200000000000000
#078320:12
#080360:22
#0783c1:12
#080381:22
