This file was generated by Ched 2.7.0.0.
#TITLE ""
#ARTIST ""
#DESIGNER ""
#DIFFICULTY 0
#PLAYLEVEL
#SONGID ""
#WAVE ""
#WAVEOFFSET 0
#JACKET ""
#REQUEST "ticks_per_beat 480"
#00002: 4
#BPM01: 140
#BPM02: 138
#BPM03: 135
#BPM04: 130
#BPM05: 125
#BPM06: 120
#BPM07: 110
#00008: 01
#07608: 0203
#07708: 04050607
#TIL00: ""
#HISPEED 00
#MEASUREHS 00
#00218:00000013
#0171b:00130000
#01715:0000001300000000
#01718:0013
#01712:2400000000130000
#0171a:24
#01710:41
#02512:24130000
#02515:0000001300000000
#02518:0013
#0251b:0000000000130000
#0251a:24
#02510:41
#03212:2300000000140000
#0321a:0000000000140000
#03218:23
#03215:0000232300000000
#0321b:0000002300000000
#03912:0000001300000000
#03916:23000013
#03917:0000001300000000
#0391b:23000013
#04012:0013000000000000
#04017:0013000000000000
#0541b:13
#05415:0013
#0531b:0013000000000000
#05312:0000001300000000
#05318:0000001300000000
#05310:41
#05618:00000013000000000000000000000000
#0561b:13
#05615:0013
#05518:13130000
#05515:0013000000000000
#05512:0000001300000000
#05718:0013000000000000
#0571b:0000001313000000
#05715:0000001313000000
#05814:0000000000130000
#05813:00000013
#05819:0000000000130000
#0581a:00000013
#0581b:1300000000000013
#05812:1300000000000013
#07015:0016
#07018:16
#07112:00130000
#07113:0013
#07114:00000013
#07119:00000013
#0711a:0013
#0711b:00130000
#07612:13
#0761b:0013
#07615:00130000
#07618:00000013
#0001b:00000013
#00118:00130000
#00115:00000013
#00312:00000013
#0031b:00000013
#00918:0013000000001300
#00915:0000130000130000
#0091b:2300001300000000
#00912:2300000000000013
#00910:41
#01018:0013000000001300
#01015:0000130000000013
#0101b:0000001300000000
#01012:0000000000130000
#0111b:0013000000000000
#01115:0000130000130013
#01118:0000001300001300
#01212:1313
#0121b:00130013
#01218:2323
#01215:00230023
#0161b:1313
#01612:00130013
#01615:2323
#01618:00230023
#01912:00130000
#01918:0000001300000000
#01915:0013
#0191b:0000000000130000
#0211b:00130000
#02115:0000001300000000
#02118:0013
#02112:0000000000130000
#0271b:00130000
#02718:0000001300000000
#02715:0013
#02712:0000000000130000
#02912:00130000
#02915:0000001300000000
#02918:0013
#0291b:0000000000130000
#03315:0000001300000000
#03318:0013
#03310:41
#03418:00130000
#03415:0000001300000000
#03412:0013
#0341b:0013
#03518:0000001300000000
#03515:0013
#03615:00130000
#03618:0000001300000000
#0361b:0013
#03612:0013
#03715:0000001300000000
#03718:0013
#03818:00130000
#03815:0000001300000000
#03812:0013
#0381b:0013
#04118:0000001300000000
#0411b:0013
#0411f:11
#04218:00130000
#04215:0000001300000000
#0421b:0013
#04212:0013
#04315:0000001300000000
#04312:0013
#04415:00130000
#04418:0000001300000000
#04412:0013
#0441b:0013
#04518:0000001300000000
#0451b:0013
#04618:00130000
#04615:0000001300000000
#0461b:0013
#04612:0013
#05212:0013
#05218:0000001300000000
#05213:2a
#0521f:21
#06615:0000132300001300
#06618:0000000000130000
#06612:2300000000000013
#0661b:2300002300000013
#06915:16
#06812:0016
#06810:41
#06718:00000000000000130000000000000000
#06715:00000000000000130000000000000000
#07212:13
#0731b:13
#07412:13
#07416:00130000
#0751b:13
#07517:00130000
#07712:13
#07715:00130000
#07718:0013
#01315:0013000000001300
#01318:0000130000130000
#01312:2300001300000000
#0131b:2300000000000013
#01415:0013000000001300
#01418:0000130000000013
#01412:0000001300000000
#0141b:0000000000130000
#01512:0013000000000000
#01518:0000130000130013
#01515:0000001300001300
#05918:00130000000000001300000000000000
#05915:00130000000000000000000013000000
#06212:13
#06218:0013
#06112:0013000000000000
#0611b:0000001300000000
#06115:0000001300000000
#06415:00000013000000000000000000000000
#06412:13
#06418:0013
#06515:0013000000000000
#06512:0000001313000000
#06518:0000001313000000
#0601b:0013
#06015:0000001300000000
#06018:24
#06315:13130000
#06318:0013000000000000
#0631b:0000001300000000
#01818:0000000000000023
#01812:0000000000000023
#0231b:0000000000000023
#02418:2300000000230000
#02415:0023000023000000
#02412:0000002300000000
#04712:2400002c
#0471a:24
#02015:0000000000000023
#0201b:0000000000000023
#02612:0000000000000023
#02618:0000000000000023
#0281b:0000000000000023
#02815:0000000000000023
#02212:0000000000000023
#02218:0000000000000023
#0301b:0000000000000023
#03015:0000000000000023
#03118:0000000000000023
#00518:23
#00514:00330000
#0051a:00000033
#00715:23
#00719:00330000
#00713:00000033
#05116:00343434343434343434343434343434
#00619:00330000
#00613:00000033
#00814:00330000
#0081a:00000033
#00258:00000063
#03252:0000000000140000
#0325a:0000000000140000
#03956:63000063
#03952:0000006300000000
#03957:0000006300000000
#0395b:63000063
#04052:0023000000000000
#04057:0023000000000000
#04752:0000006c
#0545b:53
#05455:0053
#0535b:0013000000000000
#05658:00000023000000000000000000000000
#0565b:53
#05655:0053
#05652:0000000000000013
#05758:0013000000000000
#0575b:0023
#05755:0023
#07055:0026
#07058:56
#00155:00000053
#02252:0000000000000053
#02258:0000000000000053
#0305b:0000000000000063
#03055:0000000000000063
#05252:0063
#05255:0000000000000013
#05253:1a
#06955:26
#06852:0066
#07252:53
#0735b:63
#07452:53
#07456:00230000
#0755b:63
#07557:00230000
#05552:0000005300000000
#0585b:5300000000000053
#05852:5300000000000063
#05958:00230000000000000000000000000000
#05955:00230000000000000000000000000000
#06252:63
#06258:0063
#06152:0013000000000000
#06455:00000023000000000000000000000000
#06452:63
#06458:0063
#0645b:0000000000000013
#06555:0013000000000000
#06552:0023
#06558:0023
#0605b:0053
#06058:1400000000000013
#0665b:0000000000000053
#06652:0000000000000053
#06758:00000000000000230000000000000000
#06755:00000000000000230000000000000000
#0635b:0000006300000000
#001350:00000013
#002320:0023
#002380:00000013
#0033b0:00230000
#004350:00000000000000000000000000000000130000000000000000000000000000530053000000530053000000530053000023000000000000000000000000000000
#004330:00000000000000005700005700000000
#004320:0000000000000000000000000000000000000059000000000000000000000000
#005320:0013000000000000
#005340:00330000
#005350:0000002300000000
#005380:0000000000130000
#0053a0:00000033
#0053b0:0000000000000023
#0063b0:0013000000000000
#006390:00330000
#006380:0000002300000000
#006350:0000000000130000
#006330:00000033
#006320:0000000000000023
#0073b0:0013000000000000
#007390:00330000
#007380:0000002300000000
#007350:0000000000130000
#007330:00000033
#007320:0000000000000023
#008320:0013000000000000
#008340:00330000
#008350:0000002300000000
#008380:0000000000130000
#0083a0:00000033
#0083b0:0000000000000023
#017380:0000000000000013
#018380:0023000000000000
#018350:0000001300230000
#019350:0000000000000013
#020350:0023000000000000
#020380:0000001300230000
#021380:0000000000000013
#022380:0023000000000000
#021321:0000000000000013
#022321:0023000000000000
#0223b1:0000001300230000
#022350:0000001300230000
#022380:0000000000000013
#0233b0:0023
#022321:0000000000000013
#023351:0023
#025351:0000000000000013
#026321:0023000000000000
#026381:0000001300000000
#0263b1:0000000000230000
#027381:0000000000000013
#0283b1:0023000000000000
#028351:0000001300000000
#028321:0000000000230000
#0293b1:0000000000000013
#030381:0023000000000000
#029350:0000000000000013
#030320:0023000000000000
#030320:0000001300000000
#030350:0000000000230000
#030381:0000001300000000
#0303b1:0000000000230000
#030351:0000000000000013
#031321:0023
#0303b0:0000000000000013
#031380:0023
#033380:13230000
#0333b0:0000000000000013
#0343b0:0023000000000000
#035350:13230000
#035320:0000000000000013
#036320:0023000000000000
#0373b0:13230000
#037321:13230000
#0373b1:0000000000000013
#0383b1:0023000000000000
#037320:0000000000000013
#038320:0023000000000000
#039360:13000033
#039320:0000003300000000
#040320:0053000000000000
#040360:0023
#0393b1:13000033
#039371:0000003300000000
#040371:0053000000000000
#0403b1:0023
#041321:13
#041351:00230000
#041351:0000000000000013
#042321:0023000000000000
#0433b1:13
#043381:00230000
#043381:0000000000000013
#0443b1:0023000000000000
#045321:13
#045351:00230000
#045380:13
#0453b0:00230000
#045350:0000000000000013
#046320:0023000000000000
#0453b1:0000000000000013
#046381:0023000000000000
#0473a1:14
#047381:0000002400000000
#047320:14
#047340:0000002400000000
#047320:0000001c
#049360:24
#051360:14343434343434343434343434343434
#052330:2a
#052320:0013
#052350:0000000000000023
#053320:00001323
#053381:00001323
#0543b1:13
#054381:0000002300000000
#054351:0013
#054321:0000000000000023
#055321:0000001300000000
#055351:00000023
#0563b1:1300002300000000
#056381:00000053000000000000000000000000
#056351:0013
#056321:0000000000000023
#0573b1:0013
#057381:00000023
#057350:0013
#057320:00000023
#058320:13
#058350:0023
#0583b1:13
#058381:0023
#0583b1:0000000000000013
#059381:00530000000000000000000000000000
#0593b1:00230000
#058320:0000000000000013
#059350:00530000000000000000000000000000
#059320:00230000
#0603b0:0013
#060380:0000000000000023
#0613b0:00001323
#061351:00001323
#062321:13
#062351:0000002300000000
#062381:0013
#0623b1:0000000000000023
#0633b1:0000001300000000
#063381:00000023
#064321:1300002300000000
#064351:00000053000000000000000000000000
#064381:0013
#0643b1:0000000000000023
#065321:0013
#065351:00000023
#065380:0013
#0653b0:00000023
#0663b0:0000000000000013
#067380:00000000000000530000000000000000
#0683b0:23
#066321:0000000000000013
#067351:00000000000000530000000000000000
#068321:23
#068321:0016
#069351:56
#069321:0026
#070381:16
#070351:0056
#071381:26
#0723b1:13000023
#072320:13
#072360:00000023
#073320:13000023
#0733b1:13
#073371:00000023
#0743b1:1323
#074320:1323
#074360:00530000
#075320:1323
#0753b1:1323
#075371:00530000
#078321:1c
#080361:24
