This file was generated by Ched 2.7.0.0.
#TITLE ""
#ARTIST ""
#DESIGNER ""
#DIFFICULTY 0
#PLAYLEVEL
#SONGID ""
#WAVE ""
#WAVEOFFSET 0
#JACKET ""
#REQUEST "ticks_per_beat 480"
#00002: 4
#BPM01: 140
#BPM02: 138
#BPM03: 130
#BPM04: 120
#BPM05: 110
#BPM06: 135
#BPM07: 125
#00008: 01
#07608: 0206
#07708: 03070405
#TIL00: ""
#HISPEED 00
#MEASUREHS 00
#00216:00001212
#00218:00000012
#0021c:0012000000000000
#00212:12
#00214:00120000
#0171b:2313
#01717:0000001300000000
#01712:2300131300001300
#01716:0000000000130000
#01710:41
#01912:1300131300001300
#01917:0000001212120000
#0191b:1313
#0211b:1300001300000000
#02117:0000121212120000
#02112:13131313
#02317:0013001300130013
#02314:00130013001300130013001300000000
#02312:0013001300130023
#02316:13131300
#0231b:13131313
#02416:13000000000000120012000000000000
#02417:0013000000000000
#02418:0000001212131415
#02415:00000000130000000000001300000000
#02414:00000000000000000000000000140000
#02413:00000000000000000000000000000015
#0241b:23
#02412:0023000000000000
#0541b:1300000000131300
#05417:13000000000013000000001300000000
#05412:0013130013000000
#05416:00000013000000001300000000001300
#05212:2313001300130013
#05216:0013001300130013
#0521b:13001313
#05217:00131300
#0521f:21
#0531b:0013000013001300
#05317:0013000000000000
#05312:0000001300130013
#05316:0000001300130013
#05319:13
#05314:00130000
#05310:41
#0781c:12
#07812:12
#0001c:00000012
#00012:00000012
#00114:12
#00118:00000012
#00116:00120000
#00312:00000012
#0031c:00000012
#0041a:12
#0051b:0013001300000000
#00518:00130000
#00512:2400000000130013
#00515:00000013
#0051a:24
#0061b:0013001300000000
#00617:00130000
#00612:0000000000130013
#00616:00000013
#0071b:0013001300000000
#00716:00130000
#00712:2400000000130013
#00717:00000013
#0071a:24
#00912:0012001200001200
#00916:0000120000120012
#00915:26
#00910:41
#01216:0014001400140000
#01212:2412240000122400
#0121c:0000001200000000
#0121a:2424
#01615:00130000001300000013001300001300
#0161b:0013001300001300
#01618:00000013000000130000130000130013
#01612:23232323
#0181b:13
#01815:0000130000000023
#01818:0013
#01812:00000013
#02018:13
#02015:0000130000000023
#0201b:0013
#02012:00000013
#02218:13
#02215:00130000
#0221b:0013
#02212:0000000000001323
#02214:00000000000000000000000000000013
#03119:00130013001300130013001300000000
#0311b:0013001300130000
#03117:13131300
#03112:13131313
#03116:0013001300130000
#03118:00000000000000000000000000000013
#03115:0000000000000023
#03019:00000000000000000000000000000013
#03015:13
#03018:00130000
#03012:0013
#0301b:0000000000001323
#0321b:0000002300130013
#03212:23000000230000000000001300000013
#03218:00000013
#03215:00000000000000000000000000130000
#03317:1200121212001212
#0331c:12001212
#03312:00120000
#03310:41
#03417:0000000000122200
#0341c:0000000000120000
#03412:0000001200002200
#0351c:12000000000000000000001200000000
#03512:0000121212000012
#03517:1200000012000012
#03617:0012121212122200
#0361c:0000000000120000
#03612:0000001200002200
#0371c:1212
#03717:1200121212000012
#03712:0000000000001212
#03817:0000121212122200
#0381c:0012000012002200
#03812:0000001200120000
#0391c:0000002200000012
#03917:2200002200001212
#03912:22000022
#04017:0012121212121212
#04012:12120012
#0401c:0012001200120012
#06715:16161616161616160000130000130013
#06718:00000000000000000013001300001300
#06712:00001313
#0671b:00001313
#0551b:00001313
#05518:00000000000000000013000000130000
#05515:0000000000130013
#05512:00000000000000000000001300000013
#05517:1313000000000000
#05516:0000131300000000
#05612:0013000013000000
#0561b:0000130000000013
#05616:0000001300001300
#05617:0000000000130000
#05712:0013000013130000
#05716:0013000000000000
#0571b:0000001300001313
#05717:0000001300000000
#05714:13
#05719:00130000
#05812:1300001313000013
#0581b:0013130000131300
#05816:13
#0601b:2313001300130013
#06017:0013001300130013
#06012:13001313
#06016:00131300
#06112:0013000013001300
#06116:0013000000000000
#0611b:0000001300130013
#06117:0000001300130013
#06114:13
#06119:00130000
#06312:00001313
#06315:00000000000000000013000000130000
#06318:0000000000130013
#0631b:00000000000000000000001300000013
#06316:1313000000000000
#06317:0000131300000000
#0641b:0013000013000000
#06412:0000130000000013
#06417:0000001300001300
#06416:0000000000130000
#0651b:0013000013130000
#06517:0013000000000000
#06512:0000001300001313
#06516:0000001300000000
#06519:13
#06514:00130000
#0661b:0013002300000000
#06616:23131300
#06612:2300000013000014
#06617:0013002300130000
#06614:00000014
#06618:00000014
#0661a:0000000000000014
#06816:0012000000000012
#06814:00120012
#06812:1600001200120000
#06818:16
#06810:41
#06918:1612000026000012
#0691a:00120012
#0691c:0000001200120000
#06912:16
#07016:0012000000000012
#07014:00120012
#07012:1600001200120000
#07018:16
#0711c:12
#07216:00120012
#0721c:1212
#07317:12120000
#07312:12
#0731c:00120000
#07418:00120012
#07412:1212
#07517:12120000
#0751c:12
#07512:00120000
#07918:12
#07916:12
#0081c:0012000000000000
#00812:24000012000000000000000000000000
#0081a:24120012
#00814:00000000001200000000000000120000
#00818:00000000000012121200000000000000
#00816:0000000000000000000000000012001200001200000000000000000000000000
#00819:0000000000120000
#00815:00000000000000000000001200000000
#0081b:0000000000000012
#00813:00000000000000000000000000000012
#01012:0012001200001200
#01016:0000120000120012
#01112:0012001200001200
#01116:0000120000120012
#0131c:0012001200001200
#01318:0000120000120012
#01315:26
#0141c:0012001200001200
#01418:0000120000120012
#0151c:0012001200001200
#01518:0000120000120012
#02512:00130000000000001300000000000000
#02515:0013000000000000
#02518:26000013000000000000000000000000
#02516:0000001300000000
#0251b:0000131300001300
#02517:0000000000130000
#02510:41
#0271b:1300131300001300
#02717:0000001212120000
#02712:1313
#02912:1300001300000000
#02917:0000121212120000
#0291b:13131313
#02612:13
#02618:0000130000000023
#02615:0013
#0261b:00000013
#02815:13
#02818:0000130000000023
#02812:0013
#0281b:00000013
#04117:1200121212001212
#04112:12001212
#0411c:00120000
#0411f:11
#04217:0000000000122200
#04212:0000000000120000
#0421c:0000001200002200
#04312:12000000000000000000001200000000
#0431c:0000121212000012
#04317:1200000012000012
#04417:0012121212122200
#04412:0000000000120000
#0441c:0000001200002200
#04512:1212
#04517:1200121212000012
#0451c:0000000000001212
#04617:0000121212122200
#04612:0012000012002200
#0461c:0000001200120000
#05017:12120000
#05013:0022
#0501b:0022
#0511c:12
#05112:00120000000000000000000000000000
#0511a:0012000000001200
#05114:00000012000000000000000000120000
#05118:00000000120012121200000000000000
#05116:0000000000000000000012000012001200001200000000000000000000000000
#05119:0000000000120000
#05115:00000000000000000000001200000000
#0511b:0000000000000012
#05113:00000000000000000000000000000012
#05912:13000000130000000000001300000013
#05918:00130000000000000000130000001300
#05915:00001300000000000013000000130000
#0591b:00000013000000001300000013000000
#05914:0000001300000000
#05919:0000001300000000
#06212:1300000000131300
#06216:13000000000013000000001300000000
#0621b:0013130013000000
#06217:00000013000000001300000000001300
#07714:00000012
#07716:0012
#07718:00120000
#0771a:12
#0761c:12
#07618:00000012
#07616:0012
#07614:00120000
#07612:12
#04712:0000002200002c00
#04717:2200002200000000
#0471c:22
#04913:0022
#0491b:0022
#00258:00000062
#00256:00000062
#0025c:0022000000000000
#04752:0000005200006c00
#04757:6200005200000000
#0475c:62
#0545b:5300004300000000
#05452:0000000063000033
#05456:00000023000000000000000000000000
#05457:00000000000000000000002300000000
#05252:1300001300230013
#05256:0023001300000013
#0525b:53
#05257:0053
#05357:0013000000000000
#0535b:0013000000000000
#05352:0000001300000000
#05356:0000001300000000
#0785c:62
#07852:52
#0005c:00000052
#00158:00000052
#00156:00520000
#00352:00000052
#01256:0024002400240000
#0125a:64446444
#01252:00543434
#01858:0000000000000013
#01855:0000000000000013
#02058:0000000000000013
#02055:0000000000000013
#02252:0000000000330023
#02254:00000000000000000000000000000063
#02255:0043000000000000
#0225b:0000000000000043
#02258:0000003300000000
#02356:23232300
#02352:0023002300230000
#02354:00630063006300630063006300000000
#02357:0000000000000013
#02457:0013000000000000
#02456:13
#03159:00530053005300530053005300000000
#0315b:0023002300230000
#03157:23232300
#03059:00000000000000000000000000000053
#0305b:0000000000430023
#03058:0033000000000000
#03055:0000004300000000
#03052:0000000000000033
#0355c:52000000000000000000002200000000
#03557:0000000052000052
#03757:62
#0375c:0062
#03752:0000000000000052
#03957:5200006200005222
#03952:52000052
#0395c:0000006200000022
#04052:52520000
#04057:0022002200000000
#05652:0000001300000000
#05656:0000001300000000
#05657:0000000000000013
#0565b:0000000000000013
#05752:0013000000000000
#05756:0013000000000000
#0575b:0000001300000000
#05757:0000001300000000
#05852:6363
#0585b:00530053
#0605b:1300001300230013
#06057:0023001300000013
#06052:63
#06056:0063
#06152:0013000000000000
#06156:0013000000000000
#0615b:0000001300000000
#06157:0000001300000000
#06457:0000001300000000
#06452:0000000000000013
#0645b:0000001300000000
#06456:0000000000000013
#0655b:0013000000000000
#06557:0013000000000000
#06552:0000001300000000
#06556:0000001300000000
#06652:5300000000000014
#06654:00000014
#06658:00000014
#0665a:0000000000000014
#0665b:0000005300000000
#06657:0023000000000000
#06656:0023
#06952:56
#07058:66
#07256:00520052
#0725c:5252
#07352:52
#07357:52220000
#0735c:00220000
#07458:00620062
#07452:6262
#07557:62224200
#0755c:6242
#07552:00220000
#07958:22
#07956:22
#00952:0000001200000000
#00956:0000000000000012
#01052:0000001200000000
#01056:0000000000000012
#01152:0000001200000000
#01156:0000000000000012
#0135c:0000001200000000
#01358:0000000000000012
#0145c:0000001200000000
#01458:0000000000000012
#0155c:0000001200000000
#01558:0000000000000012
#0215b:0000000000000043
#02952:0000000000000033
#02855:0000000000000013
#02858:0000000000000013
#02655:0000000000000013
#02658:0000000000000013
#03652:00000012
#03452:00000012
#0385c:00000012
#04352:62000000000000000000002200000000
#04357:0000000062000062
#04557:52
#04552:0052
#0455c:0000000000000062
#0425c:00000012
#0445c:00000012
#04652:00000012
#06252:6300003300000000
#0625b:0000000053000043
#06257:00000023000000000000000000000000
#06256:00000000000000000000002300000000
#06858:56
#06852:16
#0003c0:00000012
#001380:00220000
#001361:00120000
#001321:00000022
#001380:00000012
#0023c0:0052000000000000
#002380:0022
#002360:00000012
#003320:0022
#002381:00000012
#0033c1:0022
#003321:00000012
#004361:00220000
#004380:00000000000000000000000000000000120000000000000000000000000000520052000000520052000000520052000022000000000000000000000000000000
#004360:00000000000000005600005600000000
#004350:0000000000000000000000000000000000000058000000000000000000000000
#005360:0013002300000000
#005320:00330000
#005370:0000000000130023
#0053b0:00000033
#006360:0013002300000000
#006320:00330000
#006370:0000000000130023
#0063b0:00000033
#007360:0013002300000000
#007320:00330000
#007370:0000000000130023
#0073b0:00000033
#0093b0:1323000000000000
#009380:0000132300000000
#0093b0:0000000013230000
#009380:0000000000001323
#0103b0:1323000000000000
#010380:0000132300000000
#0103b0:0000000013230000
#010380:0000000000001323
#0113b0:1323000000000000
#011380:0000132300000000
#0113b0:0000000013230000
#011380:0000000000001323
#0123a0:14240000
#012360:0054000000000000
#012321:00142400
#012361:0000005400000000
#0123a0:00001424
#012360:0000000000540000
#013320:1323000000000000
#013350:0000132300000000
#013320:0000000013230000
#013350:0000000000001323
#014320:1323000000000000
#014350:0000132300000000
#014320:0000000013230000
#014350:0000000000001323
#015320:1323000000000000
#015350:0000132300000000
#015320:0000000013230000
#015350:0000000000001323
#0173b0:0000000000130000
#017380:00000000000000000000005300002300
#017351:0000000000000013
#017321:00000000000000000000000000000053
#018321:0023000000000000
#018380:0013000000000000
#0183b0:00000053000023000000000000000000
#018321:0000001300000000
#018351:00000000000000530000230000000000
#0183b0:0000000000130000
#018380:00000000000000000000005300002300
#0193b0:0000000000130000
#019380:00000000000000000000005300002300
#019351:0000000000000013
#019321:00000000000000000000000000000053
#020321:0023000000000000
#020380:0013000000000000
#0203b0:00000053000023000000000000000000
#020321:0000001300000000
#020351:00000000000000530000230000000000
#0203b0:0000000000130000
#020380:00000000000000000000005300002300
#0213b0:0000000000130023
#021380:00000000000000000000005300530000
#021351:0000000000000013
#021321:00000000000000000000000000000053
#022321:00530000000000000000000000000000
#022351:0023000000000000
#022380:0013002300000000
#0223b0:00000053005300000000000000000000
#022321:0000001300230000
#022351:00000000000000530053000000000000
#0223b0:0000000000130023
#022380:00000000000000000000005300530000
#022321:0000000000000013
#022341:00000000000000000000000000000053
#023361:53535323
#023341:00530053005300530053005300000000
#023321:0053005300530000
#025321:0000000000130000
#025351:00000000000000000000005300002300
#025380:0000000000000013
#0253b0:00000000000000000000000000000053
#0263b0:0023000000000000
#026351:0013000000000000
#026321:00000053000023000000000000000000
#0263b0:0000001300000000
#026380:00000000000000530000230000000000
#026321:0000000000130000
#026351:00000000000000000000005300002300
#027321:0000000000130000
#027351:00000000000000000000005300002300
#027380:0000000000000013
#0273b0:00000000000000000000000000000053
#0283b0:0023000000000000
#028351:0013000000000000
#028321:00000053000023000000000000000000
#0283b0:0000001300000000
#028380:00000000000000530000230000000000
#028321:0000000000130000
#028351:00000000000000000000005300002300
#029321:0000000000130023
#029351:00000000000000000000005300530000
#029380:0000000000000013
#0293b0:00000000000000000000000000000053
#0303b0:00530000000000000000000000000000
#030380:0023000000000000
#030351:0013002300000000
#030321:00000053005300000000000000000000
#0303b0:0000001300230000
#030380:00000000000000530053000000000000
#030321:0000000000130023
#030351:00000000000000000000005300530000
#0303b0:0000000000000013
#030390:00000000000000000000000000000053
#031370:53535323
#031390:00530053005300530053005300000000
#0313b0:0053005300530000
#0323b0:13
#032370:00530000230000000000000000000000
#032360:0000001300000000
#032320:00000000000000530000230000000000
#033320:0000000000000012
#034370:0022000000000000
#0343c1:0012003200000000
#034371:00322200
#0353c1:12000000000000000000005200000000
#035371:0000323232000032
#0363c1:0022000000000000
#037371:12
#037321:00220000
#0373c1:0012
#037371:00000022
#037321:0000000000000012
#038371:0022000000000000
#039321:12
#039371:00220000
#039370:12
#0393c0:00220000
#0393c0:0000001200000000
#039370:0000000000220000
#039371:0000001200000000
#039321:0000000000220000
#039371:00000012
#0393c1:0000000000000052
#040371:22
#039320:00000012
#039370:0000000000000052
#040320:52522200
#040370:0052005200000000
#0413c0:0000000000000012
#042370:0022000000000000
#042321:0012003200000000
#042371:00322200
#043321:12000000000000000000005200000000
#043371:0000323232000032
#044321:0022000000000000
#045371:12
#0453c1:00220000
#045321:0012
#045371:00000022
#0453c1:0000000000000012
#046371:0022000000000000
#0473c1:12
#047371:00220000
#047370:12
#047320:00220000
#047320:0000001200000000
#047370:0000000000220000
#047371:0000001200000000
#0473c1:0000000000220000
#047321:0000001c
#049371:22
#0523b1:13230000
#052361:0053000000000000
#052371:00001323
#052321:0000000000530000
#0543b1:1300002300000000
#054361:00000053000000000000000000000000
#054321:0000000013000023
#054371:00000000000000000000005300000000
#0553b1:1323000000000000
#055321:0000132300000000
#0563b1:13
#056361:0023000000000000
#056371:00130000
#056321:0000002300000000
#056361:0013
#0563b1:0000000000230000
#056321:00000013
#056371:0000000000000023
#0573b1:0013
#057361:0000000000230000
#057321:00000013
#057371:0000000000000023
#058321:13
#058371:0053230000000000
#0583b0:00130000
#058360:0000005323000000
#058321:0013
#058371:0000000000532300
#0583b0:00000013
#058360:0000000000000053
#059360:23
#060320:13230000
#060370:0053000000000000
#060360:00001323
#0603b0:0000000000530000
#062320:1300002300000000
#062370:00000053000000000000000000000000
#0623b0:0000000013000023
#062360:00000000000000000000005300000000
#063320:1323000000000000
#0633b0:0000132300000000
#064320:13
#064370:0023000000000000
#064360:00130000
#0643b0:0000002300000000
#064370:0013
#064320:0000000000230000
#0643b0:00000013
#064360:0000000000000023
#065320:0013
#065370:0000000000230000
#0653b0:00000013
#065360:0000000000000023
#066320:13230000
#066370:0053000000000000
#0663b0:0000001300230000
#066360:0053
#068380:16
#0683c0:0000005200000022
#069320:1600005200000022
#070380:16
#0703c0:0000005200000022
#071320:12
#071340:00220000
#071361:00120000
#071381:0022
#071360:0012
#071380:00000022
#0713a1:00000012
#0723c1:32
#072381:0052220000000000
#072360:00120000
#072320:0000005222000000
#0723c1:0012
#072381:0000000000522200
#072360:00000012
#072320:0000000000000052
#073320:3222
#073370:00520000
#073371:1222
#0733c1:00520000
#074321:12
#074361:0052220000000000
#074380:00120000
#0743c0:0000005222000000
#074321:0012
#074361:0000000000522200
#074380:00000012
#0743c0:0000000000000052
#0753c0:3222
#075370:00520000
#075371:1222
#075321:00520000
#0783c1:12
#079381:52
#0803c1:22
#078320:12
#079360:52
#080320:22
