This file was generated by Ched 2.7.0.0.
#TITLE ""
#ARTIST ""
#DESIGNER ""
#DIFFICULTY 0
#PLAYLEVEL
#SONGID ""
#WAVE ""
#WAVEOFFSET 0
#JACKET ""
#REQUEST "ticks_per_beat 480"
#00002: 4
#BPM01: 140
#BPM02: 138
#BPM03: 135
#BPM04: 130
#BPM05: 125
#BPM06: 120
#BPM07: 110
#00008: 01
#07608: 0203
#07708: 04050607
#TIL00: ""
#HISPEED 00
#MEASUREHS 00
#00512:14
#00514:0000000000000014
#0071a:14
#00718:0000000000000014
#00912:14
#00918:00140000
#00914:0014
#0091a:00000014
#00910:41
#01012:14
#01014:00343400
#0111a:14
#01114:00140000
#01118:0014
#01112:00000014
#0121a:14
#01218:00343400
#01314:14
#01318:00140000
#01312:0014
#0131a:00000014
#01414:14
#01412:00343400
#01518:14
#01514:00140000
#0151a:0014
#01512:00000014
#01618:14
#0161a:00343400
#01712:14140000
#01718:00001414
#01710:41
#01814:14140000
#0181a:00001414
#02112:14
#02118:00140000
#02114:0014
#0211a:00000014
#02214:1414
#0221a:00140000
#02218:00000014
#02315:0000000000000014
#02312:14343434
#0251a:14140000
#02514:00001414
#02510:41
#02618:14140000
#02612:00001414
#0291a:14
#02914:00140000
#02918:0014
#02912:00000014
#03018:1414
#03012:00140000
#03014:00000014
#03117:0000000000000014
#0311a:14343434
#03312:14
#03318:00140000
#03310:41
#0341a:1414
#03414:00140000
#03514:14
#03518:00140000
#03618:14
#03614:00140000
#0361a:0014
#03712:14
#03718:00140000
#0381a:14
#03814:00140000
#03818:0014
#03912:00000014
#04014:00140000
#0411a:14
#04114:00140000
#0411f:11
#04212:1414
#04218:00140000
#04318:14
#04314:00140000
#04414:14
#04418:00140000
#04412:0014
#0451a:14
#04514:00140000
#04612:14
#04618:00140000
#04614:0014
#0471a:00000014
#04818:0000001400000000
#05218:0016
#0521f:21
#05314:14
#05318:00140000
#05312:0014
#05310:41
#05518:14
#05514:00140000
#0551a:0014
#05714:14
#05718:00140000
#05712:0014
#0591a:14
#05918:00003434
#06012:0016
#06018:24
#06118:14
#06114:00140000
#0611a:0014
#06314:14
#06318:00140000
#06312:0014
#06518:14
#06514:00140000
#0651a:0014
#06712:14
#0681a:0014
#06810:41
#06913:14
#06919:0014
#07012:14
#07018:0014
#07113:14
#07119:0014
#07214:14
#07312:14
#07414:14
#05113:24
#02412:34343400
#0321a:34343400
#00552:54
#00554:0000000000000024
#0075a:64
#00758:0000000000000024
#01052:54
#0125a:64
#01454:64
#01658:54
#02352:54
#02355:0000000000000024
#03157:0000000000000024
#0315a:64
#04054:00240000
#03952:00000054
#0475a:00000064
#04858:0000002400000000
#05252:16
#05352:0014
#0555a:0014
#05752:0014
#06058:14
#0595a:54
#0615a:0014
#06352:0014
#0655a:0014
#06752:54
#07254:54
#07352:54
#07454:54
#000380:00000014
#0013a0:00000034
#0023a0:00003434
#003380:00000034
#004380:00240000
#005320:14
#005340:0000000000000054
#006320:00000024
#0073a0:14
#007380:0000000000000054
#0083a0:00000024
#010320:14
#010340:00343424
#0123a0:14
#012380:00343424
#014340:14
#014320:00343424
#016380:14
#0163a0:00343424
#019320:14240000
#019380:00001424
#020340:14240000
#0203a0:00001424
#023320:14343434
#023350:0000000000000054
#024320:34343424
#0273a0:14240000
#027340:00001424
#028380:14240000
#028320:00001424
#0313a0:14343434
#031370:0000000000000054
#0323a0:34343424
#033320:00001424
#035320:00001424
#037340:00001424
#039320:14000034
#039340:0000003400000000
#040340:00540000
#040320:00000024
#0413a0:00001424
#0433a0:00001424
#045380:00001424
#0473a0:14000034
#047380:0000003400000000
#048380:0000005400000000
#0493a0:24
#051330:14
#052320:26
#0543a0:14
#054380:00240000
#054340:0014
#054320:00000024
#056340:14
#056320:00240000
#0563a0:0014
#056380:00000024
#0583a0:14240000
#058320:00001424
#0593a0:14
#059380:00003434
#060380:24
#062320:14
#062340:00240000
#062380:0014
#0623a0:00000024
#064380:14
#0643a0:00240000
#064320:0014
#064340:00000024
#066320:14240000
#0663a0:00001424
#067320:14
#068340:24
#072340:14
#073320:34
#074340:34
#075320:24
#0763a0:14
#076380:0034
#0773a0:34
#077380:0034
#0783a0:34
#080360:24
