This file was generated by Ched 2.6.4.0.
#TITLE ""
#ARTIST ""
#DESIGNER ""
#DIFFICULTY 0
#PLAYLEVEL
#SONGID ""
#WAVE ""
#WAVEOFFSET 0
#JACKET ""
#REQUEST "ticks_per_beat 480"
#00002: 4
#BPM01: 129
#00008: 01
#TIL00: ""
#HISPEED 00
#MEASUREHS 00
#00318:2616
#00412:1616
#00518:16
#00512:0016
#00618:16
#00612:0016
#00718:2616
#00710:41
#00812:1616
#00918:16
#00912:0016
#01018:16
#01012:0016
#01918:14
#01910:41
#02014:14
#02118:14
#02214:14
#0231a:14
#02412:14
#0251a:14
#02612:14
#02718:14
#02814:14
#02918:14
#02910:41
#03014:14
#0311a:14
#03212:14
#0331a:14
#03412:14
#04318:2616
#0431f:21
#04412:1616
#04410:41
#04518:16
#04512:0016
#04618:16
#04612:0016
#04718:2616
#04812:1616
#04918:16
#04912:0016
#05018:16
#05012:0016
#05112:0016
#05118:26
#05218:16
#05212:0016
#05718:16
#05712:0016
#05818:16
#05812:0016
#06318:0016
#06312:26
#06310:41
#06412:16
#06418:0016
#06912:16
#06918:0016
#07012:16
#07018:0016
#06218:0014
#0351f:11
#05518:26
#05612:26
#06712:26
#06818:26
#05410:41
#011380:14
#012380:24
#013340:14
#014340:24
#0153a0:14
#0163a0:24
#017320:14
#018320:24
#035380:14
#036380:24
#037340:14
#038340:24
#0393a0:14
#0403a0:24
#041320:14000024
#053380:1626
#054320:1626
#059380:14
#060380:24
#061340:14
#062340:24
#065320:1626
#066380:1626
#071340:14
#072340:34000024
