This file was generated by Ched 2.6.4.0.
#TITLE ""
#ARTIST ""
#DESIGNER ""
#DIFFICULTY 0
#PLAYLEVEL
#SONGID ""
#WAVE ""
#WAVEOFFSET 0
#JACKET ""
#REQUEST "ticks_per_beat 480"
#00002: 4
#BPM01: 129
#00008: 01
#TIL00: ""
#HISPEED 00
#MEASUREHS 00
#0351f:11
#0351b:0000130000001313
#03512:00130013
#03515:0013
#03518:0000001300130000
#0351a:24
#00912:00000000000000000000000013000013
#00918:0013000013000013
#00915:0000130000130000
#0091b:0000001300001300
#01016:0000000000000013000000000000000000000000000000000000000024000000
#01012:00000000000000000000001300001300
#0101a:0024
#01018:00000000000000000000002400000000
#0081b:00000013000000000000000000001300
#00817:1300000000130000
#00812:23000013
#00816:00000013000000000000000000000000
#00715:0000000000000013
#00718:00000013
#0071b:2300000000130000
#00716:13
#00712:00000013000000000000000000000000
#00717:00000013000000000000000000000000
#00710:41
#06616:0000001300000014
#06619:00130013
#06612:0000000000140000
#06617:0023000000130000
#06614:00230014
#0661b:0000002300000013
#0651b:0000001300001300
#06512:13000000000000000000130000000023
#06514:0013
#06519:0013
#06517:0000000000000023
#06516:00000023
#06016:00000000000000000000000000131300
#06012:00130000
#06017:00000013000013130000000000000000
#06118:00000000000000000000131300000000
#06112:13000000000000000013000000000000
#06115:00000013
#0611b:00000013000000000000000000131300
#06117:13
#06116:00000013000000000000000000000000
#0311b:0013000013000013
#03117:0000001300000000
#03112:1300130000130000
#03115:0000000000000013
#03016:0000000000000013
#0301b:00001313
#03018:0013001300000000
#03012:0000000000130000
#03015:0013
#05917:00000000000000000000000000000013
#05912:13001313000000000013000000001300
#0591b:13000000000000000000000013130000
#05919:00130000
#02915:00000000130013000000130013000013
#02918:0000000013000013
#0291b:00000013
#02912:0013
#02910:41
#02718:00000000130000000000000013000013
#02715:0000001313000013
#02712:0000000000131300
#0271b:0013
#02818:00000000000000000000000013000013
#02812:00000000001300000000000013000000
#02816:0013000000000000
#02815:0000000000000013
#0281b:0013
#02615:00001300000000000000000013000013
#02618:1300130000000013
#02617:0000000000000000000000000000000000000013000000000000000000000000
#0261b:00001300000000130000000000000000
#02612:13
#02118:00000000130013000000130013000013
#02115:0000000013000013
#02112:00000013
#0211b:0013
#01915:00000000130000000000000013000013
#01918:0000001313000013
#0191b:0000000000131300
#01912:0013
#01910:41
#0491b:00000000000000000000000013000013
#04915:0013000013000013
#04918:0000130000130000
#04912:0000001300001300
#05017:0000000000000013000000000000000000000000000000000000000000000000
#0501a:0000000000000024
#05016:00000000000000000000002400000000
#05012:0024
#0641b:13000013
#06416:2300000000000000000000130000000000000000000000001300000000000000
#06412:00000013000000000000000000000000
#06414:0000000000000013
#06419:0000000000130000
#06417:0013
#06312:13000013
#06317:2300000000000000000000130000000000000000000000001300000000000000
#0631b:00000013000000000000000000000000
#06319:0000000000000013
#06314:0000000000130000
#06316:0013
#06310:41
#05212:13000013
#05217:2300000000000000000000130000000000000000000000001300000000000000
#0521b:00000013000000000000000000000000
#05219:0000000000000013
#05214:0000000000130000
#05216:0013
#0511b:13000013
#05116:2300000000000000000000130000000000000000000000001300000000000000
#05112:00000013000000000000000000000000
#05114:0000000000000013
#05119:0000000000130000
#05117:0013
#05618:00000024000000000000000000001300
#05615:00000013
#05612:2400000000130000
#0561a:0000001400000000
#05614:00000014000000000000000000000000
#05616:1400002400000000
#05712:1313
#05716:0013000000130000
#0571b:13130013
#05717:0000001300000000
#05512:0000001400000013
#05517:0000000000000013
#05514:00000024000000000000000013000000
#05519:00000013
#05516:1400002400130000
#0551b:0000000000130000
#05518:00000014000000000000000000000000
#0551a:24
#0541b:0000000000000013
#05416:0023000000000013
#05419:00230013
#05414:00130013
#05417:0000001300130000
#05412:0000002300130000
#05410:41
#05312:0000001300001300
#0531b:13000000000000000000130000000023
#05319:0013
#05314:0013
#05316:0000000000000023
#05317:00000023
#06815:0000000000000013
#06818:14000013
#0681b:0000000000130000
#0681a:0000001400000000
#06813:00000014000000000000000000000000
#06814:0000002600000000
#06817:00000026000000000000000000000000
#06812:26
#0691b:1313
#06917:0013000000130000
#06912:13130013
#06916:0000001300000000
#07116:00000000000000130000000000000000
#07119:00130013
#0711b:0013
#07117:13
#0671a:0000000000140000
#06716:0000002600130014
#06718:26000014
#06714:14000013
#06712:0000001400000013
#06719:00000014000000000000000000000000
#06713:00000026000000000000000000000000
#04616:0000000000130000000000000000000000000000000000000000000000000000
#04612:0000000000001313
#04617:0000001300001300
#0461b:0013000000130000
#04619:00130000
#04512:13000000000000000000000000000013
#0451b:0000000013000013
#04517:0000001300001300
#04514:0000000000130000
#04516:0013
#04817:1300000000000000000000130000000000000000000000000000000000000000
#04812:2300000000000000000000130000000000000000000000001300000013000000
#04816:00000013000000000000130000000000
#0481b:00000013000000000000000013000000
#04716:1300000000000000000000130000000000000000000000001300000000000000
#0471b:2300000000000000000000130000000000000000000000001300000013000000
#04717:00000013000000000000000000000000
#04712:00000013000000000000130000000000
#04412:1300000000000000000000130000000000000000000000001300000000000000
#04416:00000013000000000000000000000000
#04417:0000000000000000000000130000000000000000000000000000000000000000
#0441b:23000013000000000000130000000000
#04418:00000013
#04415:0000000000000013
#04410:41
#0431b:1300000000000000000000130000000000000000000000001300000000000000
#04317:00000013000000000000000000000000
#04316:0000000000000000000000130000000000000000000000000000000000000000
#04312:23000013000000000000130000000000
#04315:00000013
#04318:0000000000000013
#0431f:21
#00615:0000000000000013
#00618:00000013
#0061b:0013000000130000
#00619:00130000
#00617:0000001300000000
#0411b:0000130000001313
#04118:13
#04112:0000130000001313
#04115:13
#03716:0000000000130000000000000000000000000000000000000000000000000000
#0371b:00130013
#03715:0013
#03712:00000013
#03718:1300001300130000
#03612:0000130000001313
#03617:0000000000130000000000000000000000000000000000000000000000000000
#03618:0013
#03615:1300001300130000
#0361b:00000013
#03412:0000000013130000
#0341b:00130000
#0341a:00000000000000000000240000240000
#03316:0000000000000013
#03319:00230013
#03312:0000000000130000
#0331b:0023000000000023
#03314:00000023
#03317:0000002300230000
#0251a:0000000000000000000000000000000000000014000000000000000000000000
#02516:0000000000000000140000000000140000000014000000000000000000000000
#02512:00001400000000140000000000000000
#02514:14
#02318:0000000000000013
#02312:0013000013000013
#02316:0000001300000000
#0231b:1300130000130000
#02217:0000000000000013
#02215:0013001300000000
#02212:00001313
#0221b:0000000000130000
#02218:0013
#02015:00000000000000000000000013000013
#0201b:00000000001300000000000013000000
#02017:0013000000000000
#02018:0000000000000013
#02012:0013
#01818:00000000000000000000000013000013
#0181b:1313000013130000
#01812:0000131300001300
#01815:0000000000000013
#00515:00000000000000000000130000000013
#00518:0000000000000013
#0051b:00001313
#00512:0000001313000000
#0041b:1300000000130000
#00412:23000013000000000000000000000000
#00417:00000013000000000000000000000000
#00415:0000000000000013
#00418:00000013
#0031b:23000013000000000000000000000000
#00316:00000013000000000000000000000000
#00312:1300000000130000
#00318:0000000000000013
#00315:00000013
#0581b:2300000013000013
#05812:00000000230000001300000000130000
#05818:00000000230000000000001300000000
#05815:2300000000130000
#04215:00000016
#04216:0014
#04217:00120000
#04014:00000000000000000000000000130000
#04012:0000000000130000
#04019:00000000000000000000000000130000
#0401b:0000000000130000
#04017:0000001300000000
#03916:0000001300000000
#03816:1313
#03817:00130000
#02416:0000000000000014
#02418:00000014
#0241a:0000000000140000
#01615:00000000000000000013001300000000
#0161b:0000000013130000
#01612:00130013000000000000000000000000
#01618:1313000000000000
#01613:00000000000000000000000000000033
#01619:00000000000000000000000000330000
#01614:00000000000000330000000000000000
#0161a:00000000003300000000000000000000
#0141b:00000000000000000013001300000000
#01415:0000000013130000
#01418:00130013000000000000000000000000
#01412:1313000000000000
#01419:00000000000000000000000000000033
#01413:00000000000000000000000000330000
#0141a:00000000000000330000000000000000
#01414:00000000003300000000000000000000
#01218:00000000000000000013001300000000
#01212:0000000013130000
#0121b:00130013000000000000000000000000
#01215:1313000000000000
#0121a:00000000000000000000000000000033
#01214:00000000000000000000000000330000
#01213:00000000003300000000000000000000
#01219:00000000000000330000000000000000
#01712:00130013000013000000000000130000
#01718:2313001300001313
#01715:0000130013130000
#0171b:00000000130000000013000000000000
#01512:2313001300001300
#01518:00130013000013000000130013000000
#01515:00000000130000000013000000001300
#0151b:0000130013000013
#0131b:00130013000013000000000000130000
#01315:2313001300001313
#01318:0000130013130000
#01312:00000000130000000013000000000000
#0111b:2313001300001300
#01115:00130013000013000000130013000000
#01118:00000000130000000013000000001300
#01112:0000130013000013
#07012:2300000013000013
#0701b:00000000230000001300000000130000
#07015:00000000230000000000001300000000
#07018:2300000000130000
#07218:0000001300000000
#07215:0013000000000000
#07212:00130000
#0721b:13
#06212:00000000000000130000000000002400
#06217:0000001300000000
#06214:00130000
#06219:00000013000000000000000000000000
#06216:00130000000000000000002400000000
#0621b:13
#0621a:0024
#00215:00000016
#00216:0014
#00217:00120000
#03216:0000000000000023
#03214:00000023
#03212:0000000000230000
#03052:0013000000000000
#03056:0000000000000063
#03058:0013000000000000
#05256:00000013000000000000000000000000
#05252:53
#05257:0000000000000000000000230000000000000000000000000000000000000000
#0525b:00000063000000000000000000000000
#05157:00000013000000000000000000000000
#05156:1300000000000000000000230000000000000000000000000000000000000000
#0515b:63
#05152:00000053000000000000000000000000
#06457:00000013000000000000000000000000
#0645b:63
#06456:0000000000000000000000230000000000000000000000000000000000000000
#06452:00000053000000000000000000000000
#06356:00000013000000000000000000000000
#06357:1300000000000000000000230000000000000000000000000000000000000000
#06352:53
#0635b:00000063000000000000000000000000
#04052:0000001300000000
#0405b:00000013000000000000000000000000
#04056:13
#0395b:0000001300000000
#03952:00000013000000000000000000000000
#03957:13
#02652:00000000000000130000000000000000
#02655:00000000000000000000000000000063
#02657:0000000000000000000000000000000000000023000000000000000000000000
#0265b:00000000000000630000000000000000
#03258:0000001300000000
#03252:0000001300000000
#02455:0000001300000000
#0245b:0000001300000000
#0225b:0013000000000000
#02257:0000000000000053
#02255:0013000000000000
#04352:13000053000000000000000000000000
#0435b:6300000000000000000000230000000000000000000000000000000000000000
#04357:00000053000000000000000000000000
#04356:0000000000000000000000230000000000000000000000000000000000000000
#06854:0000003600000000
#06857:00000046000000000000000000000000
#06852:36
#06756:0000004600000000
#06753:00000036000000000000000000000000
#06758:46
#05656:0000003400000000
#05658:00000044000000000000000000000000
#05652:34
#05852:00130000
#05858:00130000
#05855:13
#0585b:13
#05556:0000004400000000
#05554:00000034000000000000000000000000
#0555a:44
#0705b:00130000
#07055:00130000
#07058:13
#07052:1300000000000053
#0035b:13000063000000000000000000000000
#00356:00000063000000000000000000000000
#00352:53
#00952:00000000000000000000000000000053
#01056:0000000000000023000000000000000000000000000000000000000000000000
#00756:63
#00752:00000053000000000000000000000000
#00757:00000053000000000000000000000000
#00857:53
#0085b:00000063000000000000000000000000
#00856:00000063000000000000000000000000
#0315b:0000000023000063
#03157:0000005300000000
#03152:23
#03155:0000000000000063
#02955:00000000000000000000000000000063
#02858:00000000000000000000000000000053
#02852:00000000002300000000000000000000
#02856:0063000000000000
#02758:00000000000000000000000000000053
#0495b:00000000000000000000000000000063
#05057:0000000000000023000000000000000000000000000000000000000000000000
#0615b:00000063000000000000000000000000
#06157:53
#06156:00000063000000000000000000000000
#06152:53
#05752:5353
#05756:0023000000230000
#0575b:00630000
#05757:0000002300000000
#0695b:6363
#06957:0023000000230000
#06952:00530000
#06956:0000002300000000
#07156:00000000000000230000000000000000
#04656:0000000000230000000000000000000000000000000000000000000000000000
#04552:00000000000000000000000000000053
#04857:5300000000000000000000230000000000000000000000000000000000000000
#04852:0000000000000000000000230000000000000000000000000000000000000000
#04856:00000063000000000000000000000000
#0485b:00000063000000000000000000000000
#04756:6300000000000000000000230000000000000000000000000000000000000000
#0475b:0000000000000000000000230000000000000000000000000000000000000000
#04757:00000053000000000000000000000000
#04752:00000053000000000000000000000000
#04452:5300000000000000000000230000000000000000000000000000000000000000
#04456:00000063000000000000000000000000
#04457:0000000000000000000000230000000000000000000000000000000000000000
#0445b:00000063000000000000000000000000
#0415b:00230000
#04158:53
#04152:00230000
#04155:63
#03756:0000000000230000000000000000000000000000000000000000000000000000
#03652:0000000000000053
#03657:0000000000230000000000000000000000000000000000000000000000000000
#0355b:0000000000000063
#03452:0000000000530000
#0345b:00630000
#03356:0000000000000063
#0255a:0000000000000000000000000000000000000024000000000000000000000000
#02556:0000000000000000000000000000540000000024000000000000000000000000
#02552:00000000000000540000000000000000
#02358:0000000000000053
#02352:0000000023000053
#02356:0000006300000000
#0235b:23
#02158:00000000000000000000000000000053
#02055:00000000000000000000000000000063
#0205b:00000000002300000000000000000000
#02057:0053000000000000
#01955:00000000000000000000000000000063
#01858:00000000000000000000000000000053
#0185b:0013000000130000
#01852:0000001300000000
#00555:00000000000000000000000000000063
#0045b:63
#00452:00000053000000000000000000000000
#00457:00000053000000000000000000000000
#07252:00130000
#0725b:13
#003320:1323
#003360:00000033000000000000000000000000
#0033b1:00000013000000000000000000000000
#003371:0023
#0043b1:1323
#004371:00000033000000000000000000000000
#004320:00000013000000000000000000000000
#004360:0023
#005320:13
#005360:00000023000000000000000000000000
#0053b1:00000013000000000000000000000000
#005371:0000002300000000
#005351:0000000000001323
#005351:00000000000000000000000000000013
#006321:0000002300000000
#007361:1323
#007321:00000033000000000000000000000000
#007370:00000013000000000000000000000000
#0073b0:0023
#008370:1323
#0083b0:00000033000000000000000000000000
#008361:00000013000000000000000000000000
#008321:0023
#008361:00000000000000000000000000000013
#009321:0023000000000000
#009321:00000000000000000000000000000013
#010361:0000000000000053000000000000000000000000000000000000000000000000
#010321:0023
#012351:00130000
#012331:00000000003300000000000000000000
#012321:0000002300000000
#0123b0:0000001300000000
#012390:00000000000000330000000000000000
#012380:0023
#012320:00000013
#012340:00000000000000000000000000330000
#012350:0000000000000023
#012381:0000000000000013
#0123a1:00000000000000000000000000000033
#0133b1:23
#014321:00130000
#014341:00000000003300000000000000000000
#014351:0000002300000000
#014380:0000001300000000
#0143a0:00000000000000330000000000000000
#0143b0:0023
#014350:00000013
#014330:00000000000000000000000000330000
#014320:0000000000000023
#0143b1:0000000000000013
#014391:00000000000000000000000000000033
#015381:23
#016381:00130000
#0163a1:00000000003300000000000000000000
#0163b1:0000002300000000
#016320:0000001300000000
#016340:00000000000000330000000000000000
#016350:0023
#0163b0:00000013
#016390:00000000000000000000000000330000
#016380:0000000000000023
#016351:0000000000000013
#016331:00000000000000000000000000000033
#017321:23
#018351:1323000000000000
#018381:0000132300000000
#018351:0000000013230000
#018381:00000000000000000000000000000013
#0193b1:00230000
#019351:00000000000000000000000000000013
#020321:0023000000000000
#020370:0013000023000000
#0203b0:00000000005300000000000000000000
#020350:00000000000000000000000000000013
#021320:00230000
#021380:00000000000000000000000000000013
#0223b0:0023000000000000
#022370:0000000000000013
#0233b0:53
#023370:0023000000000000
#023360:0000001300230000
#023320:0053
#023320:0000000000000013
#024350:00003300005323000000000000000000
#024320:00000053330000000000000000000000
#023381:0000000000000013
#0243b1:00003300005323000000000000000000
#024381:00000053330000000000000000000000
#025321:00000000001400340000000024000000
#025361:0000000000000000000000000000000000000054000000000000000000000000
#025360:00000000000000140000000024000000
#0253a0:0000000000000000000000000000000000000054000000000000000000000000
#026320:00000000001300230000000000000000
#0263b1:00000000000000130000000023000000
#026371:0000000000000000000000000000000000000053000000000000000000000000
#026351:00000000000000000000000000000013
#027321:00230000
#027381:00000000000000000000000000000013
#0283b1:0023000000000000
#028360:0013000023000000
#028320:00000000005300000000000000000000
#028380:00000000000000000000000000000013
#0293b0:00230000
#029350:00000000000000000000000000000013
#030320:0023000000000000
#030360:0000000000000013
#031320:53
#031360:0023000000000000
#031370:0000001300230000
#0313b0:0053
#0313b0:0000000000000013
#032380:00003300005323000000000000000000
#0323b0:00000053330000000000000000000000
#031351:0000000000000013
#032321:00003300005323000000000000000000
#032351:00000053330000000000000000000000
#032371:0000000000130000
#032391:00000033
#0323b1:0000000000000023
#033361:0013000000000000
#033341:00330000
#033321:0000002300000000
#033361:0000000000000013
#034321:00230000
#0343b0:00130000
#034370:0023
#034320:0000000000130000
#035360:23
#0353b0:0000000000000013
#036370:0000000000530000000000000000000000000000000000000000000000000000
#0363b0:0000002300000000
#036320:0000000000000013
#037360:0000000000530000000000000000000000000000000000000000000000000000
#037320:0000002300000000
#0373b0:0000000000000013
#0383b0:0023000000000000
#038321:0013002300000000
#0383b0:0000001300230000
#038321:0000000000130000
#038361:00000000000000000000005300230000
#0383b0:00000000000000000000000000130000
#038370:0000000000000053
#039370:23
#039321:13000023000000000000000000000000
#0393b0:00000013000023000000000000000000
#0393b0:0000000000130000
#039370:00000000000000000000005300230000
#039321:00000000000000000000000000130000
#039361:0000000000000053
#040361:23
#0403b0:13000023000000000000000000000000
#040321:00000013000023000000000000000000
#041351:1323
#041321:00530000
#041380:1323
#0413b0:00530000
#0433b0:1300000000000000000000530000000000000000000000000000000000000000
#043370:00000033000000002300000000000000
#043321:00000013000000002300000000000000
#043361:0000000000000000000000530000000000000000000000000000000000000000
#044321:1300000000000000000000530000000000000000000000000000000000000000
#044361:00000033000000002300000000000000
#0443b0:00000013000000002300000000000000
#044370:0000000000000000000000530000000000000000000000000000000000000000
#045370:13
#0453b0:00000023000000000000000000000000
#045361:00000013000000000000000000000000
#045321:0000002300000000
#045321:0000000000001323
#045321:00000000000000000000000000000013
#046361:0000000000530000000000000000000000000000000000000000000000000000
#046321:0000002300000000
#047361:1300000000000000000000530000000000000000000000000000000000000000
#047321:00000033000000002300000000000000
#047370:00000013000000002300000000000000
#0473b0:0000000000000000000000530000000000000000000000000000000000000000
#048370:1300000000000000000000530000000000000000000000000000000000000000
#0483b0:00000033000000002300000000000000
#048361:00000013000000002300000000000000
#048321:0000000000000000000000530000000000000000000000000000000000000000
#048371:00000000000000000000000000000013
#0493b1:0023000000000000
#0493b1:00000000000000000000000000000013
#050371:0000000000000053000000000000000000000000000000000000000000000000
#0503b1:0023
#0513b1:13
#051371:00000023000000000000000000000000
#051320:00000013000000002300000000000000
#051360:0000000000000000000000530000000000000000000000000000000000000000
#052320:13
#052360:00000023000000000000000000000000
#0523b1:00000013000000002300000000000000
#052371:0000000000000000000000530000000000000000000000000000000000000000
#053361:13
#053321:00000023000000000000000000000000
#0533b0:00000013000000000000000000000000
#053370:0000002300000000
#0533b0:00000000000000000000000000000013
#0543b0:0023000000000000
#057320:13230000
#057360:0053000000000000
#0573b1:00132300
#057371:0000005300000000
#057320:00001323
#057360:0000000000530000
#059360:00000000001300230000000000000000
#0593b1:00000000000000130023000000000000
#060321:00130023000000000000000000000000
#060321:00000000000000000013002300000000
#0603b0:00000000000000000000001300230000
#061320:1300002300000000
#061360:00000033000000000000000000000000
#061371:1300002300000000
#0613b1:00000033000000000000000000000000
#063321:13
#063361:00000023000000000000000000000000
#0633b0:00000013000000002300000000000000
#063370:0000000000000000000000530000000000000000000000000000000000000000
#0643b0:13
#064370:00000023000000000000000000000000
#064321:00000013000000002300000000000000
#064361:0000000000000000000000530000000000000000000000000000000000000000
#065371:13
#0653b1:00000023000000000000000000000000
#065320:00000013000000000000000000000000
#065360:0000002300000000
#065320:00000000000000000000000000000013
#066320:0023000000000000
#0693b0:13230000
#069370:0053000000000000
#069321:00132300
#069361:0000005300000000
#0693b0:00001323
#069370:0000000000530000
#070320:0000000000000013
#071360:00000000000000530000000000000000
#072320:23
#072320:000000000000000000000000000000000000000000000000135353535353230000000000000000000000000000000000
#072330:000000000000000000000000000000000000000000000000000000000000000000000000000000000000000000000000005300530053005300530053000000000000000000000000000000000000000000000000000000000000000000000000
#0723b1:000000000000000000000000000000000000000000000000000000000000135353535353230000000000000000000000
#0723a1:000000000000000000000000000000000000000000000000000000000000000000000000000000000000000000000000000000000000000000000000005300530053005300530053000000000000000000000000000000000000000000000000
#072360:000000000000000000000000000000000000000000000000000000000000000000000000000000000000000000000000000000000000000000000000000000000000000000000000140000000000005300530053000000000000000000000000
#072350:000000000000000000000000000000000000000000000000000000000000000000000000000000000000000000000000000000000000000000000000000000000000000000000000005400540054000000000000000000000000000000000000
#072370:000000000000000000000000000000000000000000000000000000000000000000000000005454535353220000000000
