This file was generated by Ched 2.6.4.0.
#TITLE ""
#ARTIST ""
#DESIGNER ""
#DIFFICULTY 0
#PLAYLEVEL
#SONGID ""
#WAVE ""
#WAVEOFFSET 0
#JACKET ""
#REQUEST "ticks_per_beat 480"
#00002: 4
#BPM01: 129
#00008: 01
#TIL00: ""
#HISPEED 00
#MEASUREHS 00
#00215:00130013
#00218:0013
#00312:0000000000130000
#00318:00000013000000000000000013000000
#00315:0000000000000013
#0031b:13
#00518:1300000000130013
#0051b:00000013000000000000000000000000
#00515:00000000000000001300000000000013
#00512:00000013
#00615:0000001300001300
#00618:0000130000000013
#0061b:0000000000130000
#00912:00000000000000000000000013000013
#00918:0000130013000013
#0091b:0000001300000000
#00915:0000000000130000
#01818:00000013
#01815:0000000000000013
#01912:0000001300000000
#01915:0000000013000013
#01918:00000000000000000000130000000013
#0191b:00000013
#01910:41
#01315:0013000013130000
#01318:00000000130000000013000000000000
#0131b:0000001300001300
#01312:0000000000000013
#0111b:0000130000000013
#01112:0000001300001300
#01115:23001300000000000013000000000000
#01118:00130000000000001300130000000000
#02212:0000000000130000
#02215:00000013
#02218:0000000000000013
#0241a:0000000000140000
#02414:00000014
#02419:0000000000000014
#02418:00130000
#02415:0000001300000000
#02513:14
#02518:0014000000000000
#02512:00140000
#02516:00000000000000140000000000000000
#02612:13
#02615:00001300000000130000000000000000
#02618:0000130000000013
#03415:0013
#03418:0000000000130000
#0341a:00000000000000000000000000330000
#03515:0000000000130000
#0351b:0000001300000000
#03518:00000013
#03512:0000001300000013
#0351f:11
#03712:0000001300000000
#0371b:00000013
#03715:0000000000130000
#03718:0013
#03315:0000230000000013
#03312:0000000000230000
#03318:0000002300002300
#0331b:0023000000000000
#05318:00000013000000001300000000002300
#05315:00000000000000000000130000000023
#0531b:13
#05312:00000023
#0511b:0000000000130000
#05118:00000013
#05115:2300000000000000000000130000000000000000000000000000000013000000
#05112:00000013000000000000000000000000
#05012:0000001300000000000000000000000000000000000000000000000000000000
#05014:00000000000000000000002400000000
#05018:0000000024000024
#0041b:13
#00418:00000013000000000000000013000000
#00412:0000000000130000
#00415:0000000000000013
#0071b:0000000000130000
#00715:00000013000000000000000013000000
#00718:0000000000000013
#00712:13
#00710:41
#00812:13
#00815:00000013000000000000000013000013
#0081b:0000000000130000
#00818:0000000000000013
#01418:1300130000130000
#01415:0013000013001300
#0141b:0000001300000000
#01412:0000000000000013
#01718:0013000013130000
#01715:00000000130000000013000000000000
#01712:0000001300001300
#0171b:0000000000000013
#01512:0000130000000013
#0151b:0000001300001300
#01515:00130000000000001300130000000000
#01518:23001300000000000013000000000000
#0201b:0013000000000000
#02015:00000013
#02018:0000000000000013
#02118:0000001300130000
#0211b:0013
#02115:00000013
#02112:0000000000000013
#02318:0000130000000013
#02315:0000001300000000
#0271b:0000001300000000
#02718:0000000013000013
#02715:00000000000000000000130000000013
#02712:00000013
#0301b:0000000000130000
#03018:00000013
#03015:0000000000000013
#02812:0013000000000000
#02818:00000013
#02815:0000000000000013
#02915:0000001300130000
#02912:0013
#02918:00000013
#0291b:0000000000000013
#02910:41
#03115:0000130000000013
#03118:0000001300000000
#03618:0000000000130000
#03612:00000013
#0361b:0000001300000013
#03615:0013
#04115:13
#04118:13
#04218:00130013
#04215:0013
#0431b:0000000000130000
#04312:00000013000000000000000013000000
#04318:0000000000000013
#04315:23
#0431f:21
#04515:00000013000000000000000000001300
#0451b:00000000000000001300000000000013
#04512:1300000000130000
#04518:00000013
#04618:0000001300000000
#04612:0000130000130000
#0461b:00000013
#04615:0000000000000013
#04915:00000000130000000000130000000013
#04918:0000000013000013
#04912:00000013
#0491b:0000001300000000
#04818:23000000000000000000000000000013
#0481b:00000013000000000000000013000000
#04812:0000000000130000
#04815:0000000000000013
#04412:00000013000000000000000013000000
#0441b:0000000000130000
#04418:0000000000000013
#04415:23
#04410:41
#04712:0000000000130000
#0471b:00000013000000000000000013000000
#04715:0000000000000013
#04718:23
#0521b:00000013000000000000000000000000
#05218:2300000000000000000000130000000000000000000000000000000013000000
#05212:0000000000130000
#05215:00000013
#06515:00000013000000001300000000002300
#06518:00000000000000000000130000000023
#06512:13
#0651b:00000023
#06312:0000000000130000
#06315:00000013
#06318:2300000000000000000000130000000000000000000000000000000013000000
#0631b:00000013000000000000000000000000
#06310:41
#06412:00000013000000000000000000000000
#06415:2300000000000000000000130000000000000000000000000000000013000000
#0641b:0000000000130000
#06418:00000013
#0541b:0000000000130000
#05418:00230013
#05415:0000002300000013
#05410:41
#0561b:0000000000130000
#05618:00000013
#05615:0000000000000013
#05612:2400002400000000
#0561a:00000024000000000000000000000000
#05512:00000024000000000000130000000000
#05515:00000013
#05518:0000000000000013
#0551a:2400002400000000
#06615:0000230000130000
#06618:0000002300001300
#0661b:0000000000000013
#06718:00000026000000000000130000000000
#06715:00000013
#06712:2600002600000013
#06812:00000026000000000000130000000000
#06815:00000013
#06818:2600002600000013
#03215:0000130000000023
#03218:0000001300002300
#03212:0000000000230000
#05712:1313
#05716:00130000
#0581b:0000000000000013
#05818:23230000
#05812:23230000
#05917:00000000001300000000000000000000
#06917:00130000
#0691b:1313
#07116:00000000000000130000000000000000
#07012:0000000000000013
#07015:23230000
#0701b:23230000
#07218:00130000
#0721b:0013000000000000
#07215:0000001300000000
#01018:0000000024000024
#01014:00000000000000000000002400000000
#06218:00000000000000000000002400000000
#06214:0000000024000024
#06219:00000033000000000000000000000000
#01213:00330000000000000000000000000000
#01214:0033000000000000
#01215:00000033333333330000000000000000
#01219:00000000000000000033000000000000
#0121a:0000000000330000
#0121b:00000000000000000000003333333333
#0161a:00330000000000000000000000000000
#01619:0033000000000000
#01618:00000033333333330000000000000000
#01614:00000000000000000033000000000000
#01613:0000000000330000
#01612:00000000000000000000003333333333
#04014:00000000000000000000000000330000
#04019:00000000000000000000000000330000
#06013:00000000000000000033000000000000
#06112:00000000000000000000333333330000
#05858:13130000
#05852:13130000
#0585b:0000000000000063
#00952:00000000000000000000000000000053
#02258:0013000000000053
#02556:00000000000000540000000000000000
#03355:0000000000000063
#05152:00000053000000000000000000000000
#05155:6300000000000000000000230000000000000000000000000000000000000000
#05052:0000002300000000000000000000000000000000000000000000000000000000
#0035b:63
#00358:00000053000000000000000000000000
#0045b:63
#00458:00000053000000000000000000000000
#0055b:00000063000000000000000000000000
#00558:53
#00555:00000000000000000000000000000063
#00752:53
#00755:00000063000000000000000000000000
#00852:53
#00855:00000063000000000000000000000063
#0205b:0063000000000000
#01958:00000000000000000000000000000053
#02355:0000006300000000
#02358:0000000000000053
#03055:0013000000000063
#02852:0053000000000000
#02755:00000000000000000000000000000063
#03158:0000005300000000
#03155:0000000000000063
#02655:00000000000000630000000000000000
#03458:0000000000530000
#03552:0000000000000053
#0365b:0000000000000063
#04155:63
#04158:53
#04955:00000000000000000000000000000063
#04858:53000000000000000000000000000053
#0485b:00000063000000000000000000000000
#04352:00000053000000000000000000000000
#04355:63
#04452:00000053000000000000000000000000
#04455:63
#04555:00000063000000000000000000000000
#04552:53
#0455b:00000000000000000000000000000063
#0475b:00000063000000000000000000000000
#04758:53
#0525b:00000063000000000000000000000000
#05258:5300000000000000000000230000000000000000000000000000000000000000
#05358:00000053000000000000000000000000
#0535b:63
#0635b:00000063000000000000000000000000
#06358:5300000000000000000000230000000000000000000000000000000000000000
#06452:00000053000000000000000000000000
#06455:6300000000000000000000230000000000000000000000000000000000000000
#06555:00000063000000000000000000000000
#06552:53
#06752:1600001600000000
#06758:00000016000000000000000000000000
#0555a:1400001400000000
#05552:00000014000000000000000000000000
#05652:1400001400000000
#0565a:00000014000000000000000000000000
#06858:1600001600000000
#06852:00000016000000000000000000000000
#05752:5353
#05756:00630000
#05957:00000000002300000000000000000000
#06957:00530000
#0695b:6363
#07055:13130000
#0705b:13130000
#07052:0000000000000053
#07156:00000000000000230000000000000000
#0033b0:1323
#003380:00000033000000000000000000000000
#0043b0:1323
#004380:00000033000000000000000000000000
#005380:1300002300000000
#0053b0:00000033000000000000000000000000
#005350:00000000000000000000000000000013
#006320:0023000000000000
#007320:1323
#007350:00000033000000000000000000000000
#008320:1323
#008350:00000033000000000000000000000000
#008350:00000000000000000000000000000013
#009320:0023000000000000
#009320:00000000000000000000000000000013
#010360:00230000
#012320:13
#012330:00330000000000000000000000000000
#012340:0033000000000000
#012350:00000033333333332300000000000000
#012381:0013
#012391:00000000000000000033000000000000
#0123a1:0000000000330000
#0123b1:00000000000000000000003333333333
#0133b1:23
#0163b1:13
#0163a1:00330000000000000000000000000000
#016391:0033000000000000
#016381:00000033333333332300000000000000
#016350:0013
#016340:00000000000000000033000000000000
#016330:0000000000330000
#016320:00000000000000000000003333333333
#017320:23
#018320:1323000000000000
#0183b0:0000132300000000
#018350:0000000013230000
#018380:00000000000000000000000000000013
#019380:00230000
#019380:00000000000000000000000000000013
#0203b0:0033000000000000
#020380:0023
#020350:00000000000000000000000000000013
#021350:00230000
#021380:00000000000000000000000000000013
#022380:0023000000000000
#022380:0000000000000013
#0233b0:0023000000000000
#023350:0000001300000000
#023320:0000000000230000
#023380:0000000000000013
#0243b0:0023000000000000
#025360:00000000001400340000000000000000
#0253a0:00000024
#026350:00000000001300330000000000000000
#026320:00000023
#026350:00000000000000000000000000000013
#027350:00230000
#027350:00000000000000000000000000000013
#028320:0033000000000000
#028350:0023
#028380:00000000000000000000000000000013
#029380:00230000
#029350:00000000000000000000000000000013
#030350:0023000000000000
#030350:0000000000000013
#031320:0023000000000000
#031380:0000001300000000
#0313b0:0000000000230000
#031350:0000000000000013
#032320:0023000000000000
#033350:0000000000000013
#034320:00230000
#034380:0000000000130000
#0343a0:00000000000000000000000000330000
#0353b0:23
#035320:0000000000000013
#036350:00230000
#0363b0:0000000000000013
#037380:00230000
#037350:0000000000000013
#038350:0000002300000000
#038381:0013002300000000
#038321:0000000000130000
#038341:00000000000000000000000000330000
#039361:33
#039341:00000033000000000000000000000000
#039321:0000002300000000
#0393b1:0000000000130000
#039391:00000000000000000000000000330000
#040371:33
#040391:00000033000000000000000000000000
#0403b1:0000002300000000
#040321:0000000000130000
#040341:00000000000000000000000000330000
#041351:33
#041321:0000000000000023
#0403b0:0000000000130000
#040390:00000000000000000000000000330000
#041380:33
#0413b0:0000000000000023
#043350:1323
#043320:00000033000000000000000000000000
#044350:1323
#044320:00000033000000000000000000000000
#045320:1300002300000000
#045350:00000033000000000000000000000000
#0453b0:00000000000000000000000000000013
#046380:0023000000000000
#047380:1323
#0473b0:00000033000000000000000000000000
#048380:1323
#0483b0:00000033000000000000000000000000
#048380:00000000000000000000000000000013
#0493b0:0023000000000000
#049350:00000000000000000000000000000013
#050320:0000005300000000000000000000000000000000000000000000000000000000
#050350:00230000
#051350:1300000000000000000000530000000000000000000000000000000000000000
#051320:00000033000000002300000000000000
#052380:1300000000000000000000530000000000000000000000000000000000000000
#0523b0:00000033000000002300000000000000
#0533b0:1300002300000000
#053380:00000033000000000000000000000000
#053350:00000000000000000000000000000013
#054350:0023000000000000
#057320:1333
#057360:00330023
#0583b0:00000000000000001300000000333300
#058380:00000000000000000000333300000000
#059370:00000000005300000000000000000000
#0593b0:00000023
#060350:13330000000033330000000000332300
#060320:00000033330000000000003300000000
#060330:00000000000000000033000000000000
#0613b0:1300002300000000
#061380:00000033000000000000000000000000
#061320:00000000000000000013333333330000
#061350:0000000000000023
#0623b0:13
#062390:00000033000000000000000000000000
#062380:0000002300000000
#063380:1300000000000000000000530000000000000000000000000000000000000000
#0633b0:00000033000000002300000000000000
#064350:1300000000000000000000530000000000000000000000000000000000000000
#064320:00000033000000002300000000000000
#065320:1300002300000000
#065350:00000033000000000000000000000000
#065380:00000000000000000000000000000013
#066380:0023000000000000
#0693b0:1333
#069370:00330023
#070320:00000000000000001300000000333300
#070350:00000000000000000000333300000000
#071360:00000000000000530000000000000000
#072320:23
#072320:0000000000000000000000000000000013535353230000000000000000000000
#072330:00000000000000000000000000000000000000000000000000000000000000000053005300530053000000000000000000000000000000000000000000000000
#0723b0:0000000000000000000000000000000000000000000000001353535323000000
#0723a0:00000000000000000000000000000000000000000000000000000000000000000000000000000000000000000000000000530053005300530000000000000000
