This file was generated by Ched 2.6.4.0.
#TITLE ""
#ARTIST ""
#DESIGNER ""
#DIFFICULTY 0
#PLAYLEVEL
#SONGID ""
#WAVE ""
#WAVEOFFSET 0
#JACKET ""
#REQUEST "ticks_per_beat 480"
#00002: 4
#BPM01: 129
#00008: 01
#TIL00: ""
#HISPEED 00
#MEASUREHS 00
#00314:00000013
#00317:0000000000000013
#00312:1400001313000013
#00316:2800000000130000
#00319:00000013
#0031a:00000014000000000000000000000000
#0031b:0000000000130000
#00512:1313
#0051b:0000000013000013
#00516:00000013000000000000130000000013
#00517:1300001300001300
#00617:0013001300130000
#0061b:0000130013000013
#00612:0000000013130000
#00614:00000013
#00619:00000013
#00616:0000000000000013
#0621a:14000012120000000000000000000000
#06216:12120000000014002400000000000000
#06214:00000014000000000000002300000000
#06212:00000000000012120000000000002300
#06219:00000000000000000000002300000000
#0621b:0000000000000023
#0721a:14000000120000001200000000120000
#07212:00140000
#07218:00001200001200120000000000000012
#07216:00000012000012000000000000001200
#07214:12000012
#0701b:23000000230000001300000000131300
#07017:00001300000000000000131300000000
#07016:2300230013000013
#07012:00001300000000000000001300000000
#0711b:13000013
#07118:00130000160000001600130000130000
#07115:00001300000000000013000000001300
#07112:00000013000016001300000016000000
#0111b:23130013000013001300000013000000
#01116:0013001300001300
#01117:0000130000000013
#01112:2300130013000013
#01115:00000000000000000013000000000000
#01118:0000000000130000
#01212:1300001313000013
#01215:00130000130000130000130000130000
#01218:00001300001300000013000013000013
#0121b:13000013000000001300001300000000
#0131b:23000013000013000000130013000000
#01315:00001300000000000013000013000000
#01318:00130000000000001300000000130000
#01312:1300130013000013
#01312:23
#01316:0000001300000000
#01317:00130000
#01412:1313
#01415:00130000000000000013000000000000
#01418:0013000000130000
#0141b:13000013000000001300001300000000
#01417:00000000000000130000000000000013
#01416:00130013
#01419:00000000001300000000000000130000
#01414:0000001300000013
#01516:0000130000000013
#01512:23130013000013001300000013000000
#0151b:2300130013000013
#01518:00000000000000000013000000000000
#01515:0000000000130000
#01517:0013001300001300
#0161b:1300001313000013
#01618:00130000130000130000130000130000
#01615:00001300001300000013000013000013
#01612:13000013000000001300001300000000
#01712:23000013000013000000130013000000
#01718:00001300000000000013000013000000
#01715:00130000000000001300000000130000
#0171b:2300130013000013
#01717:0000001300000000
#01716:00130000
#0181b:13000000000000001300000013000013
#01817:0013000000130000
#01812:00130013
#01816:0000001300000013
#01912:0013001300130000
#01916:2300130013000013
#0191b:13000000000000130000130000001300
#01915:00000013
#01918:00000000000000000000001300000000
#01917:0013001300000000
#01910:41
#05517:0013000000130000
#0551b:13000000001300001300000013000000
#05518:00000000000000000000000000130000
#05515:0000000000000013
#05512:2400002800002c000000130000000000
#05516:0013
#05616:00001328000000000000130000000000
#05612:1300000000132c001300000013000000
#05617:0013
#0561b:0000000000131300
#05615:00000000000000000000000000130000
#05618:0000000000000013
#0561a:24
#02418:0000000000160000
#02415:00000016
#02412:0000001313000016
#02419:13130000
#02414:13130000
#02416:0013000000000000
#0241b:0013000013000000
#02417:0000001300000000
#02515:16000000000000000000000000000023
#02518:0016000000000023
#02512:00000000160000160000000023000000
#0251b:00000000000000000023002300000000
#00419:00000013
#00419:00000013
#00416:0000000000000013
#00416:0000000000000013
#00414:00000013
#00414:00000013
#0041b:0000001313000013
#0041b:0000000000000013
#0041a:14
#00417:0000000000130000
#00412:24000014000000000000130000000000
#02612:13130000
#02616:000000000000000000000000130000000000000000000000000000000000000000000000000000000000000000000000000000000000000000000000000000000000000000000000000000000000000000003300330000330000330000330000
#02617:000000130000000000003300
#0261b:0000000000131300
#0261a:000000000000000000000000000000000000000000000000000000000000000000000000003300000000000000000000
#02619:000000000000000000000000000000000000003300000000
#02618:00000000000000000000000000330000
#0421c:00120000
#0421a:0012
#04218:00000012
#04212:00120000
#04214:0012
#04216:00000012
#02012:13001300000000000013000013000013
#02019:00130000
#0201b:0000001300001300
#02018:00000000000000130000000000000000
#02015:0013
#02017:0000000000130013
#0211b:0013001313000000
#02117:13000000000000000000001300000000
#02112:0000130000131300
#02116:00001300000000130000000000000000
#02118:0000000000000013
#02115:00000000000000000000000000000013
#02215:0013
#02216:00000013
#02212:1300000000130013
#0221b:0013130000000000
#02218:0000001300000000
#02317:0013001300000013
#0231b:00131313
#02316:00001313
#02312:0000000000130013
#0271b:0013001300130000
#02717:0000130013000013
#02712:13000000000000130000130000001300
#02718:00000013
#02715:00000000000000000000001300000000
#02716:0013001300000000
#0281b:13001300000000000013000013000013
#02814:00130000
#02812:0000001300001300
#02815:00000000000000130000000000000000
#02818:0013
#02816:0000000000130013
#02916:13000000000000000000001300000000
#02912:0013001313000000
#02917:00001300000000130000000000000000
#0291b:0000130000131300
#02915:0000000000000013
#02918:00000000000000000000000000000013
#02910:41
#03018:0013
#03017:00000013
#0301b:1300000000130013
#03012:0013130000000000
#03015:0000001300000000
#03116:0013001300000013
#03112:00131313
#03117:00001313
#0311b:0000000000130013
#03214:13130000
#03219:13130000
#03217:0013000000000000
#03212:0013000013240024
#0321b:0000001313000000
#03216:0000001300002400
#0331b:13001313
#03312:1300000013130013
#0331a:0024002400000000
#03316:0000240000242424
#03412:0000000013130000
#0341b:1313
#03417:00001313000000000000000000000000
#03414:00130000
#03419:00000000001300000000000000000000
#03416:00000000000013000000240000130000
#0341a:00000000000000000000000000240000
#00719:0000001300001300
#00712:2400000000000013
#00717:0000000013000013
#0071b:0000000000130000
#00714:00000013
#00716:14000014000000000000130000000000
#00710:41
#0091b:0000000013000013
#00916:00000000130000000000130000000013
#00917:0000001300000000
#01012:1313130013000000
#0101b:13130000
#01017:00000013000000000000000000000000
#01018:00000000000013002400001300002600
#01015:00000000000000130000000000001300
#01013:00000000000000000000002500000000
#0081b:00000000000000000000000000001313
#00814:0000001300000000
#00816:14000014000000001300000000001300
#00812:0000000000131300
#00817:0000000000130000
#0081a:24
#05415:00000000000000000000000000130000
#05412:0000002413001300
#05418:0000000000000013
#05416:0000240000130000
#0541b:1300000000130000
#05417:0013
#0541a:0024000000000000
#05410:41
#03514:0013000000130000
#03516:24131300
#03517:0000000000001313
#03512:0000001300001300
#0351b:00131300
#0351f:11
#03614:0013000000000000
#03616:1300000000001313
#03612:00131300
#03617:0013
#03619:0000000000130000
#0361b:00130000000013000000000013000000
#03712:00130000000013000000000013000000
#03715:0000000000130000
#0371b:00130013
#03718:0013
#03719:0013000000000000
#03717:1300000000000013
#03912:1300001300001300
#03917:13000000001313000000000000000000
#0391b:00000013000000001300000000000000
#03916:00001313000000001300000000000013
#04012:00000013000000001300000013000000
#04016:13000000001313000000130000000000
#0401b:1300001300000000
#04017:00001313000000001300000000000000
#04112:00000013000000140000000013001600
#04118:0000000013131600
#0411a:0000001400000000
#04115:00000000000000000013001300000000
#0411b:1300000000000013
#04116:00130000000000000000000000000000
#04117:00130000
#03812:13131300
#0381b:1300131300001300
#03817:00000000000000001300000000000013
#03815:0013000000000000
#06712:1300002800132c001300130000130000
#06717:0013000000130013
#0671b:00001313
#06716:00000013
#0671a:24
#06616:0000240000130013
#06612:1324000013001300
#06617:00000013
#0661b:00000000000000001300130000130000
#0661a:0000002400000000
#0681b:13000000001300001300000013000000
#06816:00001328000000000000000000000000
#06817:0000000000130000
#06812:2400002c13131300
#06818:00000000000000000000000000130000
#06815:0000000000000013
#0021c:00120000
#0021a:0012
#00218:00000012
#00212:00120000
#00214:0012
#00216:00000012
#06412:1313
#06417:00001313
#0641b:2300000000130013
#06416:0000001400001400000000001300000000000000000000000000000000000000
#06512:1300000000000000001300000000000013000000000000001300000000000000
#06516:0000000000132424
#0651b:0000001300000000000000000000000000000000000000000000000013002300
#06515:00000013000000000000000000000000
#06517:13
#05116:0000001400001400000000001300000000000000000000000000000000000000
#05112:1313
#05117:00001313
#0511b:0000000000130013
#05115:29
#05217:0000001300000000
#0521b:1313
#05216:0000001400001400000000000000000013000000000000001300000000000000
#05212:2300000000130013
#0531b:1300000000000000001300000000000013000000000000001300000000000000
#05317:0000000000130000
#05312:0000001300000000000000000000000000000000000000000000000013002300
#05318:00000013000000000000000000000000
#05316:1300000000002424
#0431b:0000001300001300
#04312:28000014000000000000130000001300
#04319:0013
#04317:0000000000130013
#04316:0000000000000000000000140000000000000000000000001300000000000000
#0431a:14
#0431f:21
#0451b:00000013000000001300000013000000
#04514:0013
#04516:0000000000130000
#04517:1300000000000013
#04512:13000000000013000000000000000013
#0461b:0013001313001300
#04617:0000130000130013
#04612:0013
#04412:1400001300001300
#0441b:0000000000130013
#04417:00000013
#04416:0000000000000000000000140000000000000000130000000000000013000000
#04414:0013
#0441a:24000014000000000000000000000000
#04410:41
#04712:00001313
#04716:1400000000001400000000130000000000000000130000000000000013000000
#0471a:2400000000000000000000140000000000000000000000000000000000000000
#04912:0000000013000013
#04917:00000000130000000000130000000013
#04916:0000001300000000
#04812:2400000000000000000000140000000000000000000000000000000013001300
#04817:0000000000000000000000130000000000000000000000000000000013000000
#0481b:0000000013131300
#04816:14000014000000000000130000000000
#0501b:13000013000013000000000000002300
#05012:1300000000000023
#05017:00130000
#05016:0024
#05014:00000000000000000000002300000000
#05019:00000000000000000000002300000000
#05812:23000000230000001300000000131300
#05816:00001300000000000000131300000000
#05817:2300230013000013
#0581b:00001300000000000000001300000000
#06317:0000001300000000
#0631b:1313
#06316:0000001400001400000000000000000013000000000000001300000000000000
#06312:2900000000130013
#06310:41
#05912:13000000120000000012120000000000
#05916:00000000000000000000000012120000
#05918:00001212000000000000000000001212
#06016:12000000000012120000000000000000
#06012:00000012120000000000000000121200
#0601c:00000000000000000012000000000000
#06114:00000012
#0611a:00000012
#06118:12000000000000000012000000121200
#06116:00000000000000000000121200000000
#06917:130000000000000000000000000000000000000000000000000000000000000000000000000000000000000000000000000000000000000000000000000000000000000000000000000000000000000000000000000000000000000000000000000000000000000000000000000000000000000000000000000000000000000000000000000000000000000000000000000000000000000000000000000000000000000000000000000000000000000000000000000000000000000000000000000000000000000000000000000000000000000000000000000000000000000000000000000000000000000000000000000000000000000000000000000000000000000000000000000000000000000000000000000000000000000000000000000000000000000000000000000000000000000000000000000000000000000000000000000000000000000000000000000000000000000000000000000000000000000000000000000000000000000000000000000000000000000000000000000000000000000000000000000000000000000000000000000000000000000000000000000000000000000000000000000000000000000000000000000000000000000000000000000000000000000000000000000000000000000000000000000000000000000000000000000000000000000000000000000000000000000000000000000000000013000000000000000000000000000000000000000000000000000000000000000000000000000000000000000000000000000000000000000000000000000000000000000000000000000000000000000000000000000000000000000000000000000000000000000000000000000000000000000000000000000000000000000000000000000000000000000000000000000000000000000000000000000000000000000000000000000000000000000000000000000000000000000000000000000000000000000000000000000000000000000000000000000000000000000000000000000000000000000000000000000000000000000000000000000000000000000000000000000000000000000000000000000000000000000000000000000000000000000000000000000000000000000000000000000000000000000000000000000000000000000000000000000000000000000000000000000000000000000000000000000000000000000000000000000000000000000000000000000000000000000000000000000000000000000000000000000000000000000000000000000000000000000000000000000000000000000000000000000000000000000000000000000000000000000000000000000000000000000000000013000000000000000000000000000000000000000000000000000000000000000000000000000000000000000000000000000000000000000000000000000000000000000000000000000000000000000000000000000000000000000000000000000000000000000000000000000000000000000000000000000000000000000000000000000000000000000000000000000000000000000000000000000000000000000000000000000000000000000000000000000000000000000000000000000000000000000000000000000000000000000000000000000000000000000000000000000000000000000000000000000000000000000000000000000000000000000000000000000000000000000000000000000000000000000000000000000000000000000000000000000000000000000000000000000000000000000000000000000000000000000000000000000000000000000000000000000000000000000000000000000000000000000000000000000000000000000000000000000000000000000000000000000000000000000000000000000000000000000000000000000000000000000000000000000000000000000000000000000000000000000000000000000000000000000000000000000000000000000000000013000000000000000000000000000000000000000000000000000000000000000000000000000000000000000000000000000000000000000000000000000000000000000000000000000000000000000000000000000000000000000000000000000000000000000000000000000000000000000000000000000000000000000000000000000000000000000000000000000000000000000000000000000000000000000000000000000000000000000000000000000000000000000000000000000000000000000000000000000000000000000000000000000000000000000000000000000000000000000000000000000000000000000000000000000000000000000000000000000000000000000000000000000000000000000000000000000000000000000000000000000000000000000000000000000000000000000000000000000000000000000000000000000000000000000000000000000000000000000000000000000000000000000000000000000000000000000000000000000000000000000000000000000000000000000000000000000000000000000000000000000000000000000000000000000000000000
#06912:24242424
#05716:130000000000000000000000000000000000000000000000000000000000000000000000000000000000000000000000000000000000000000000000000000000000000000000000000000000000000000000000000000000000000000000000000000000000000000000000000000000000000000000000000000000000000000000000000000000000000000000000000000000000000000000000000000000000000000000000000000000000000000000000000000000000000000000000000000000000000000000000000000000000000000000000000000000000000000000000000000000000000000000000000000000000000000000000000000000000000000000000000000000000000000000000000000000000000000000000000000000000000000000000000000000000000000000000000000000000000000000000000000000000000000000000000000000000000000000000000000000000000000000000000000000000000000000000000000000000000000000000000000000000000000000000000000000000000000000000000000000000000000000000000000000000000000000000000000000000000000000000000000000000000000000000000000000000000000000000000000000000000000000000000000000000000000000000000000000000000000000000000000000000000000000000000000000013000000000000000000000000000000000000000000000000000000000000000000000000000000000000000000000000000000000000000000000000000000000000000000000000000000000000000000000000000000000000000000000000000000000000000000000000000000000000000000000000000000000000000000000000000000000000000000000000000000000000000000000000000000000000000000000000000000000000000000000000000000000000000000000000000000000000000000000000000000000000000000000000000000000000000000000000000000000000000000000000000000000000000000000000000000000000000000000000000000000000000000000000000000000000000000000000000000000000000000000000000000000000000000000000000000000000000000000000000000000000000000000000000000000000000000000000000000000000000000000000000000000000000000000000000000000000000000000000000000000000000000000000000000000000000000000000000000000000000000000000000000000000000000000000000000000000000000000000000000000000000000000000000000000000000000000000000000000000000000000013000000000000000000000000000000000000000000000000000000000000000000000000000000000000000000000000000000000000000000000000000000000000000000000000000000000000000000000000000000000000000000000000000000000000000000000000000000000000000000000000000000000000000000000000000000000000000000000000000000000000000000000000000000000000000000000000000000000000000000000000000000000000000000000000000000000000000000000000000000000000000000000000000000000000000000000000000000000000000000000000000000000000000000000000000000000000000000000000000000000000000000000000000000000000000000000000000000000000000000000000000000000000000000000000000000000000000000000000000000000000000000000000000000000000000000000000000000000000000000000000000000000000000000000000000000000000000000000000000000000000000000000000000000000000000000000000000000000000000000000000000000000000000000000000000000000000000000000000000000000000000000000000000000000000000000000000000000000000000000000013000000000000000000000000000000000000000000000000000000000000000000000000000000000000000000000000000000000000000000000000000000000000000000000000000000000000000000000000000000000000000000000000000000000000000000000000000000000000000000000000000000000000000000000000000000000000000000000000000000000000000000000000000000000000000000000000000000000000000000000000000000000000000000000000000000000000000000000000000000000000000000000000000000000000000000000000000000000000000000000000000000000000000000000000000000000000000000000000000000000000000000000000000000000000000000000000000000000000000000000000000000000000000000000000000000000000000000000000000000000000000000000000000000000000000000000000000000000000000000000000000000000000000000000000000000000000000000000000000000000000000000000000000000000000000000000000000000000000000000000000000000000000000000000000000000000000
#0571a:24242424
#01857:0013000000130000
#01856:0000001300000000
#05552:3400003800003c000000000000000000
#05656:00000048000000000000000000000000
#0565a:44
#05652:0000004c00000000
#0195b:63
#01957:0023000000000000
#0705b:13131300
#07056:1300130063000063
#07052:00005300000000000000005300000000
#07057:0053000000000000
#0725a:14
#07252:00140000
#02252:53
#0225b:0013000000000000
#02256:0013000000000000
#02452:0000001300000000
#02457:0000001300000000
#03052:0013000000000000
#0305b:63
#03057:0013000000000000
#0325b:0000001300000000
#03256:0000001300000000
#03952:1300001300000000
#0395b:00000013000000000000000000000000
#03552:00000013
#03557:0000000000000053
#0355b:00130000
#03652:00130000
#0365b:00230000000000000000000013000000
#03656:0000000000000063
#0375b:00130000
#03752:00230000000000000000000013000000
#03757:0000000000000053
#0405b:1300001300000000
#04052:00000013000000000000000000000000
#03855:0063000000000000
#03852:00230000
#0385b:23130000
#03156:0000006300000000
#03152:0023
#02357:0000005300000000
#0235b:0023
#00756:54000064000000000000000000000000
#0075a:00000014000000000000000000000000
#00556:00000063000000000000000000000063
#00557:53
#0035a:00000064000000000000000000000000
#00352:54
#00356:18000014000000000000000000000000
#0045a:64
#00456:00000014000000000000000000000000
#00452:00000054000000000000000000000000
#02157:53
#0215b:0023000000000000
#02052:0053000000000000
#0285b:0063000000000000
#03456:00000000000000000000000000230000
#03452:0000000000530000
#02552:00000000000000560000000000000000
#0675a:44
#06752:0000003800004c000000000000000000
#01058:0000000044000046
#01053:00000000000000000000003500000000
#04158:00000046
#04152:0000000000000036
#06852:3400003c00000000
#06856:00000048000000000000000000000000
#06552:0000000000000000002300000000000000000000000000000000000000000000
#0655b:0000002300000000000000000000000000000000000000000000000000006300
#06555:00000063000000000000000000000000
#06557:53
#05256:0000002400006400000000000000000000000000000000000000000000000000
#0525b:63
#0525a:00000044000000000000000000000000
#05352:0000002300000000000000000000000000000000000000000000000000005300
#0535b:0000000000000000002300000000000000000000000000000000000000000000
#05358:00000053000000000000000000000000
#05356:63
#05156:0000002400005400000000000000000000000000000000000000000000000000
#05152:53000034000000000000000000000000
#05155:49
#04552:53000000000000000000000000000053
#0455b:00000063000000000000000000000000
#04352:18000054000000000000000000000000
#0435a:64
#04356:0000000000001400000000240000000000000000000000000000000000000000
#00856:64000054000000000000000000000000
#00852:00000014000000000000000000000000
#0445a:00000064000000000000000000000000
#04452:54
#04456:0000000000001400000000240000000000000000000000000000000000000000
#04856:54000064000000000000000000000000
#04852:0000000000000000000000240000000000000000000000000000000000000000
#0485a:00000014000000000000000000000000
#05052:53
#05057:00230000
#05852:13131300
#05857:1300130053000053
#0585b:00006300000000000000006300000000
#05856:0063000000000000
#06456:0000002400005400000000000000000000000000000000000000000000000000
#06452:53000034000000000000000000000000
#06356:0000002400006400000000000000000000000000000000000000000000000000
#0635b:63
#06352:39
#0635a:00000044000000000000000000000000
#02752:53
#02756:0023000000000000
#02952:0023000000000000
#02956:63
#0265b:00000063
#06957:530000000000000000000000000000000000000000000000000000000000000000000000000000000000000000000000000000000000000000000000000000000000000000000000000000000000000000000000000000000000000000000000000000000000000000000000000000000000000000000000000000000000000000000000000000000000000000000000000000000000000000000000000000000000000000000000000000000000000000000000000000000000000000000000000000000000000000000000000000000000000000000000000000000000000000000000000000000000000000000000000000000000000000000000000000000000000000000000000000000000000000000000000000000000000000000000000000000000000000000000000000000000000000000000000000000000000000000000000000000000000000000000000000000000000000000000000000000000000000000000000000000000000000000000000000000000000000000000000000000000000000000000000000000000000000000000000000000000000000000000000000000000000000000000000000000000000000000000000000000000000000000000000000000000000000000000000000000000000000000000000000000000000000000000000000000000000000000000000000000000000000000000000000000053000000000000000000000000000000000000000000000000000000000000000000000000000000000000000000000000000000000000000000000000000000000000000000000000000000000000000000000000000000000000000000000000000000000000000000000000000000000000000000000000000000000000000000000000000000000000000000000000000000000000000000000000000000000000000000000000000000000000000000000000000000000000000000000000000000000000000000000000000000000000000000000000000000000000000000000000000000000000000000000000000000000000000000000000000000000000000000000000000000000000000000000000000000000000000000000000000000000000000000000000000000000000000000000000000000000000000000000000000000000000000000000000000000000000000000000000000000000000000000000000000000000000000000000000000000000000000000000000000000000000000000000000000000000000000000000000000000000000000000000000000000000000000000000000000000000000000000000000000000000000000000000000000000000000000000000000000000000000000000000053000000000000000000000000000000000000000000000000000000000000000000000000000000000000000000000000000000000000000000000000000000000000000000000000000000000000000000000000000000000000000000000000000000000000000000000000000000000000000000000000000000000000000000000000000000000000000000000000000000000000000000000000000000000000000000000000000000000000000000000000000000000000000000000000000000000000000000000000000000000000000000000000000000000000000000000000000000000000000000000000000000000000000000000000000000000000000000000000000000000000000000000000000000000000000000000000000000000000000000000000000000000000000000000000000000000000000000000000000000000000000000000000000000000000000000000000000000000000000000000000000000000000000000000000000000000000000000000000000000000000000000000000000000000000000000000000000000000000000000000000000000000000000000000000000000000000000000000000000000000000000000000000000000000000000000000000000000000000000000000053000000000000000000000000000000000000000000000000000000000000000000000000000000000000000000000000000000000000000000000000000000000000000000000000000000000000000000000000000000000000000000000000000000000000000000000000000000000000000000000000000000000000000000000000000000000000000000000000000000000000000000000000000000000000000000000000000000000000000000000000000000000000000000000000000000000000000000000000000000000000000000000000000000000000000000000000000000000000000000000000000000000000000000000000000000000000000000000000000000000000000000000000000000000000000000000000000000000000000000000000000000000000000000000000000000000000000000000000000000000000000000000000000000000000000000000000000000000000000000000000000000000000000000000000000000000000000000000000000000000000000000000000000000000000000000000000000000000000000000000000000000000000000000000000000000000000
#06952:34343434
#05756:630000000000000000000000000000000000000000000000000000000000000000000000000000000000000000000000000000000000000000000000000000000000000000000000000000000000000000000000000000000000000000000000000000000000000000000000000000000000000000000000000000000000000000000000000000000000000000000000000000000000000000000000000000000000000000000000000000000000000000000000000000000000000000000000000000000000000000000000000000000000000000000000000000000000000000000000000000000000000000000000000000000000000000000000000000000000000000000000000000000000000000000000000000000000000000000000000000000000000000000000000000000000000000000000000000000000000000000000000000000000000000000000000000000000000000000000000000000000000000000000000000000000000000000000000000000000000000000000000000000000000000000000000000000000000000000000000000000000000000000000000000000000000000000000000000000000000000000000000000000000000000000000000000000000000000000000000000000000000000000000000000000000000000000000000000000000000000000000000000000000000000000000000000000063000000000000000000000000000000000000000000000000000000000000000000000000000000000000000000000000000000000000000000000000000000000000000000000000000000000000000000000000000000000000000000000000000000000000000000000000000000000000000000000000000000000000000000000000000000000000000000000000000000000000000000000000000000000000000000000000000000000000000000000000000000000000000000000000000000000000000000000000000000000000000000000000000000000000000000000000000000000000000000000000000000000000000000000000000000000000000000000000000000000000000000000000000000000000000000000000000000000000000000000000000000000000000000000000000000000000000000000000000000000000000000000000000000000000000000000000000000000000000000000000000000000000000000000000000000000000000000000000000000000000000000000000000000000000000000000000000000000000000000000000000000000000000000000000000000000000000000000000000000000000000000000000000000000000000000000000000000000000000000000063000000000000000000000000000000000000000000000000000000000000000000000000000000000000000000000000000000000000000000000000000000000000000000000000000000000000000000000000000000000000000000000000000000000000000000000000000000000000000000000000000000000000000000000000000000000000000000000000000000000000000000000000000000000000000000000000000000000000000000000000000000000000000000000000000000000000000000000000000000000000000000000000000000000000000000000000000000000000000000000000000000000000000000000000000000000000000000000000000000000000000000000000000000000000000000000000000000000000000000000000000000000000000000000000000000000000000000000000000000000000000000000000000000000000000000000000000000000000000000000000000000000000000000000000000000000000000000000000000000000000000000000000000000000000000000000000000000000000000000000000000000000000000000000000000000000000000000000000000000000000000000000000000000000000000000000000000000000000000000000063000000000000000000000000000000000000000000000000000000000000000000000000000000000000000000000000000000000000000000000000000000000000000000000000000000000000000000000000000000000000000000000000000000000000000000000000000000000000000000000000000000000000000000000000000000000000000000000000000000000000000000000000000000000000000000000000000000000000000000000000000000000000000000000000000000000000000000000000000000000000000000000000000000000000000000000000000000000000000000000000000000000000000000000000000000000000000000000000000000000000000000000000000000000000000000000000000000000000000000000000000000000000000000000000000000000000000000000000000000000000000000000000000000000000000000000000000000000000000000000000000000000000000000000000000000000000000000000000000000000000000000000000000000000000000000000000000000000000000000000000000000000000000000000000000000000000
#0575a:44444444
#04752:00000014000000000000000000000000
#0475a:0000000000000000000000240000000000000000000000000000000000000000
#04756:64000054000000000000000000000000
#003320:14
#003360:00000024000000000000000000000000
#0033a1:00000014000000000000000000000000
#003361:0024
#0043a1:14
#004361:00000024000000000000000000000000
#004320:00000014000000000000000000000000
#004360:0024
#005370:13
#0053b0:00000023000000000000000000000000
#005361:00000013000000000000000000000000
#005321:0000002300000000
#005321:00000013
#005361:0000000000000023
#005361:00000000000000000000000000000013
#006321:0033002300000000
#006361:00330000
#007361:14
#0073a1:00000024000000000000000000000000
#007360:00000014000000000000000000000000
#007320:0024
#008360:14
#008320:00000024000000000000000000000000
#008361:00000014000000000000000000000000
#0083a1:0024
#008361:00000000000000000000000000000013
#009321:0023000000000000
#0093b0:0013230000000000
#009320:0000001323000000
#0093b0:0000000000132300
#009321:00000013
#009361:0000000000000023
#018361:13
#018321:00532300000000000000000000000000
#018371:00130000
#0183b1:00000000005323000000000000000000
#018361:0013
#018321:00000000000000000053230000000000
#0193b1:13230000
#019371:0053000000000000
#0193b1:00000000000000000000000000000013
#020371:0023000000000000
#020320:0013000000000000
#020360:0000002300000000
#021370:13230000
#0213b0:0053000000000000
#022320:13
#022360:0023000000000000
#022370:0000000000130033
#0223b0:00000033
#0233b0:23
#023361:13330000
#023321:0033002300000000
#023370:0000001300230000
#0233b0:0053
#025380:00000000001600260000000000000000
#025321:00000000000000160000000000000000
#025351:00000000000000000000002600000000
#0263b1:1323000000000000
#026371:00000000001300230000000000000000
#026320:00000000000000130000000000000000
#026360:0000000000230000
#0263b0:00000013
#0263a0:000000000000000000000000000000000000000000000000000000000000000000000000003300000000000000000000
#026390:000000000000000000000000000000000000003300000000
#026380:00000000000000000000000000330000
#026370:000000000033
#026360:000000000000000000000000000000000000000000000000000000000000000000000000000000000000000000000000000000000000000000000000000000000000000000000000000000000000000000003300330000330000330000330000
#027360:23
#027321:13230000
#027361:0053000000000000
#027321:00000000000000000000000000000013
#028361:0023000000000000
#0283b0:0013000000000000
#028370:0000002300000000
#029360:13230000
#029320:0053000000000000
#0303b0:13
#030370:0023000000000000
#030360:0000000000130033
#030320:00000033
#031320:23
#031371:13330000
#0313b1:0033002300000000
#031360:0000001300230000
#031320:0053
#032370:00000000000000000000130000532300
#0323b0:00000000000000000000005333000000
#033360:00001300005323000000000000000000
#033320:00000053330000000000000000000000
#034320:1323000000000000
#034320:0000000000130000
#034360:00000000000000000000000000530000
#035320:23
#035370:0000000000000013
#0363b0:00530000000000000000000000000000
#036370:00230000
#036360:0000000000000013
#037320:00530000000000000000000000000000
#037360:00230000
#037370:0000000000000013
#0383b0:53
#038380:0023000000000000
#038351:0013000000000000
#038321:00530000
#038361:0000002300000000
#038321:0000000000130000
#038361:00000000000000000000005323000000
#038361:00000000000000000000000000130000
#038321:00000000000000000000000000005323
#0393b1:0000000000130000
#039371:00000000000000000000005323000000
#039371:00000000000000000000000000130000
#0393b1:00000000000000000000000000005323
#0403b1:0000000000130000
#040371:00000000000000000000000000230000
#040320:00000000000000000000000000130000
#041360:23
#0433a0:14
#043360:00000024000000000000000000000000
#043321:00000014000000002400000000000000
#043361:0000000000000000000000540000000000000000000000000000000000000000
#044321:14
#044361:00000024000000000000000000000000
#0443a0:00000014000000002400000000000000
#044360:0000000000000000000000540000000000000000000000000000000000000000
#045320:13
#045360:00000023000000000000000000000000
#0453b1:00000013000000000000000000000000
#045371:0000002300000000
#045361:00000013
#045321:0000000000000023
#045321:00000000000000000000000000000013
#046361:0033002300000000
#046321:00330000
#046321:0000000000130023
#046361:00000033
#047361:14
#047321:00000024000000000000000000000000
#047360:00000014000000002400000000000000
#0473a0:0000000000000000000000540000000000000000000000000000000000000000
#0473b0:0000000000130023
#047370:00000033
#048360:14
#0483a0:00000024000000000000000000000000
#048361:00000014000000002400000000000000
#048321:0000000000000000000000540000000000000000000000000000000000000000
#048371:00000000000000000000000000000013
#0493b1:0023000000000000
#049320:0013230000000000
#0493b0:0000001323000000
#049320:0000000000132300
#0493b1:00000013
#049371:0000000000000023
#050321:1323
#050371:00530000
#051321:13000024000000000000000000000000
#051361:0000005400000000000000000000000000000000000000000000000000000000
#051360:00000014000000000000000000000000
#0513a0:0000002400000000
#051360:0000000000130023
#051320:00000033
#0523b0:13
#052360:0000005400000000000000000000000000000000000000000000000000000000
#0523a0:00000024000000000000000000000000
#052361:00000014000000000000000000000000
#052321:0000002400000000
#052371:0000000000130023
#0523b1:00000033
#053361:13
#053321:0000005300000000000000000000000000000000000000000000000000000000
#053351:00000023000000000000000000000000
#053380:00000013000000000000000000000000
#0533b0:0000000000000000005300000000000000000000000000000000000000000000
#053370:0000002300000000
#053321:0000001300230000
#053361:0033
#053321:00000000000000000000000000000013
#054361:0023000000000000
#057361:130000000000000000000000000000000000000000000000000000000000000000000000000000000000000000000000000000000000000000000000000000000000000000000000000000000000000000000000000000000000000000000000000000000000000000000000000000000000000000000000000000000000000000000000000000000000000000000000000000000000000000000000000000000000000000000000000000000000000000000000000000000000000000000000000000000000000000000000000000000000000000000000000000000000000000000000000000000000000000000000000000000000000000000000000000000000000000000000000000000000000000000000000000000000000000000000000000000000000000000000000000000000000000000000000000000000000000000000000000000000000000000000000000000000000000000000000000000000000000000000000000000000000000000000000000000000000000000000000000000000000000000000000000000000000000000000000000000000000000000000000000000000000000000000000000000000000000000000000000000000000000000000000000000000000000000000000000000000000000000000000000000000000000000000000000000000000000000000000000000000000000000000000000000053000000000000000000000000000000000000000000000000000000000000000000000000000000000000000000000000000000000000000000000000000000000000000000000000000000000000000000000000000000000000000000000000000000000000000000000000000000000000000000000000000000000000000000000000000000000000000000000000000000000000000000000000000000000000000000000000000000000000000000000000000000000000000000000000000000000000000000000000000000000000000000000000000000000000000000000000000000000000000000000000000000000000000000000000000000000000000000000000000000000000000000000000000000000000000000000000000000000000000000000000000000000000000000000000000000000000000000000000000000000000000000000000000000000000000000000000000000000000000000000000000000000000000000000000000000000000000000000000000000000000000000000000000000000000000000000000000000000000000000000000000000000000000000000000000000000000000000000000000000000000000000000000000000000000000000000000000000000000000000000053000000000000000000000000000000000000000000000000000000000000000000000000000000000000000000000000000000000000000000000000000000000000000000000000000000000000000000000000000000000000000000000000000000000000000000000000000000000000000000000000000000000000000000000000000000000000000000000000000000000000000000000000000000000000000000000000000000000000000000000000000000000000000000000000000000000000000000000000000000000000000000000000000000000000000000000000000000000000000000000000000000000000000000000000000000000000000000000000000000000000000000000000000000000000000000000000000000000000000000000000000000000000000000000000000000000000000000000000000000000000000000000000000000000000000000000000000000000000000000000000000000000000000000000000000000000000000000000000000000000000000000000000000000000000000000000000000000000000000000000000000000000000000000000000000000000000000000000000000000000000000000000000000000000000000000000000000000000000000000000053000000000000000000000000000000000000000000000000000000000000000000000000000000000000000000000000000000000000000000000000000000000000000000000000000000000000000000000000000000000000000000000000000000000000000000000000000000000000000000000000000000000000000000000000000000000000000000000000000000000000000000000000000000000000000000000000000000000000000000000000000000000000000000000000000000000000000000000000000000000000000000000000000000000000000000000000000000000000000000000000000000000000000000000000000000000000000000000000000000000000000000000000000000000000000000000000000000000000000000000000000000000000000000000000000000000000000000000000000000000000000000000000000000000000000000000000000000000000000000000000000000000000000000000000000000000000000000000000000000000000000000000000000000000000000000000000000000000000000000000000000000000000000000000000000000000000
#057321:000000000000000000000000000000000000000000000000000000000000000000000000000000000000000000000000000000000000000000000000000000000000000000000000000000000000000000000000000000000000000000000000000000000000000000000000000000000000000000000000000000000000000000000000000000000000000000000000000000000000000000000000000000000000000000000000000000000000000000000000000000000000000000000000000000000000000000000000000000000000000000000000000000000000000000000000000000000000000000000000000000000000000000000000000000000000000000000000000000000000000000000000000000000000000000000000000000000000000000000000000000000000000000000000000000000000000000000000000000000000000000000000000000000000000000000000000000000000000000000000000000000000000000000000000000000000000000000000000000000000000000000000000000000000000000000000000000000000000000000000000000000000000000000000000000000000005357000000000000000000000000000000000000000000000000000000000000000000000000000000370000000000000000000000000000000000000000000000000000000000000000000000000000005700000000000000000000000000000000000000000000000000000000000000000000000000000000000000000000000000000000000000000000000000000000000000000000000000000000000000000000000000000000000000000000000000000000000000000000000000000000000000000000000000000000000000000000000000000000000000000000000000000000000000000000000000000000000000000000000000000000000000000000000000000000000000000000000000000000000000000000000000000000000000000000000000000000000000000000000000000000000000000000000000000000000000000000000000000000000000000000000000000000000000000000000000000000000000000000000000000000000000000000000000000000000000000000000000000000000000000000000000000000000000000000000000000000000000000000000000000000000000000000000000000000000000000000000000000000000000000000000000000000000000000000000000005357000000000000000000000000000000000000000000000000000000000000000000000000000000370000000000000000000000000000000000000000000000000000000000000000000000000000005700000000000000000000000000000000000000000000000000000000000000000000000000000000000000000000000000000000000000000000000000000000000000000000000000000000000000000000000000000000000000000000000000000000000000000000000000000000000000000000000000000000000000000000000000000000000000000000000000000000000000000000000000000000000000000000000000000000000000000000000000000000000000000000000000000000000000000000000000000000000000000000000000000000000000000000000000000000000000000000000000000000000000000000000000000000000000000000000000000000000000000000000000000000000000000000000000000000000000000000000000000000000000000000000000000000000000000000000000000000000000000000000000000000000000000000000000000000000000000000000000000000000000000000000000000000000000000000000000000000000000000000000000530057000000000000000000000000000000000000000000000000000000000000000000000000000000370000000000000000000000000000000000000000000000000000000000000000000000000000005700000000000000000000000000000000000000000000000000000000000000000000000000000000000000000000000000000000000000000000000000000000000000000000000000000000000000000000000000000000000000000000000000000000000000000000000000000000000000000000000000000000000000000000000000000000000000000000000000000000000000000000000000000000000000000000000000000000000000000000000000000000000000000000000000000000000000000000000000000000000000000000000000000000000000000000000000000000000000000000000000000000000000000000000000000000000000000000000000000000000000000000000000000000000000000000000000000000000000000000000000000000000000000000000000000000000000000000000000000000000000000000000000000000000000000000000000000000000000000000005300000000000000000000000000000000000000000000000000000000000000000000000000000000000000000000000000000000000000000000000000000000000000000000000000000000000000
#058321:23
#0583b1:0013000000000000
#058371:000000000053230000000000000000000000000000000000
#058360:0013000000000000
#058320:000000000053230000000000000000000000000000000000
#058370:00000000000000001300000000333300
#0583b0:00000000000000000000333300000000
#0593b0:23
#059320:00000000001200000000000000000000
#059360:00000000000052220000000000000000
#0593c1:00000000000000120000000000000000
#059381:00000000000000005222000000000000
#0603c1:00120000000000000000000000000000
#060381:00005222000000000000000000000000
#060381:00120000
#0603c1:00000000005222000000000000000000
#060361:00000000000000000012000000000000
#060321:00000000000000000000522200000000
#0603c0:00000000000000000000001200000000
#060380:00000000000000000000000052220000
#061320:12
#061360:00520022000000000000000000000000
#061381:00000012000000000000000000000000
#0613c1:0000522200000000
#061320:0000001200000000
#061360:00000000000000520022000000000000
#0633b0:13
#063360:0000005400000000000000000000000000000000000000000000000000000000
#0633a0:00000024000000000000000000000000
#063361:00000014000000000000000000000000
#063321:0000002400000000
#063371:0000000000130023
#0633b1:00000033
#064321:13000024000000000000000000000000
#064361:0000005400000000000000000000000000000000000000000000000000000000
#064360:00000014000000000000000000000000
#0643a0:0000002400000000
#064360:0000000000130023
#064320:00000033
#065370:13
#0653b0:0000005300000000000000000000000000000000000000000000000000000000
#065380:00000023000000000000000000000000
#065351:00000013000000000000000000000000
#065321:0000000000000000005300000000000000000000000000000000000000000000
#065361:0000002300000000
#0653b0:0000001300230000
#065370:0033
#0653b0:00000000000000000000000000000013
#066370:0023000000000000
#069370:130000000000000000000000000000000000000000000000000000000000000000000000000000000000000000000000000000000000000000000000000000000000000000000000000000000000000000000000000000000000000000000000000000000000000000000000000000000000000000000000000000000000000000000000000000000000000000000000000000000000000000000000000000000000000000000000000000000000000000000000000000000000000000000000000000000000000000000000000000000000000000000000000000000000000000000000000000000000000000000000000000000000000000000000000000000000000000000000000000000000000000000000000000000000000000000000000000000000000000000000000000000000000000000000000000000000000000000000000000000000000000000000000000000000000000000000000000000000000000000000000000000000000000000000000000000000000000000000000000000000000000000000000000000000000000000000000000000000000000000000000000000000000000000000000000000000000057000000000000000000000000000000000000000000000000000000000000000000000000000000370000000000000000000000000000000000000000000000000000000000000000000000000000005753000000000000000000000000000000000000000000000000000000000000000000000000000000000000000000000000000000000000000000000000000000000000000000000000000000000000000000000000000000000000000000000000000000000000000000000000000000000000000000000000000000000000000000000000000000000000000000000000000000000000000000000000000000000000000000000000000000000000000000000000000000000000000000000000000000000000000000000000000000000000000000000000000000000000000000000000000000000000000000000000000000000000000000000000000000000000000000000000000000000000000000000000000000000000000000000000000000000000000000000000000000000000000000000000000000000000000000000000000000000000000000000000000000000000000000000000000000000000000000000000000000000000000000000000000000000000000000000000000000000000000000000000000057000000000000000000000000000000000000000000000000000000000000000000000000000000370000000000000000000000000000000000000000000000000000000000000000000000000000005753000000000000000000000000000000000000000000000000000000000000000000000000000000000000000000000000000000000000000000000000000000000000000000000000000000000000000000000000000000000000000000000000000000000000000000000000000000000000000000000000000000000000000000000000000000000000000000000000000000000000000000000000000000000000000000000000000000000000000000000000000000000000000000000000000000000000000000000000000000000000000000000000000000000000000000000000000000000000000000000000000000000000000000000000000000000000000000000000000000000000000000000000000000000000000000000000000000000000000000000000000000000000000000000000000000000000000000000000000000000000000000000000000000000000000000000000000000000000000000000000000000000000000000000000000000000000000000000000000000000000000000000000000057000000000000000000000000000000000000000000000000000000000000000000000000000000370000000000000000000000000000000000000000000000000000000000000000000000000000005753000000000000000000000000000000000000000000000000000000000000000000000000000000000000000000000000000000000000000000000000000000000000000000000000000000000000000000000000000000000000000000000000000000000000000000000000000000000000000000000000000000000000000000000000000000000000000000000000000000000000000000000000000000000000000000000000000000000000000000000000000000000000000000000000000000000000000000000000000000000000000000000000000000000000000000000000000000000000000000000000000000000000000000000000000000000000000000000000000000000000000000000000000000000000000000000000000000000000000000000000000000000000000000000000000000000000000000000000000000000000000000000000000000000000000000000000000000000000000000000000000000000000000000000000000000000000000000000000000000000000000000000000000000000000000000000000000000000000000000000000000000000000000000000000000000000000
#0693b0:000000000000000000000000000000000000000000000000000000000000000000000000000000000000000000000000000000000000000000000000000000000000000000000000000000000000000000000000000000000000000000000000000000000000000000000000000000000000000000000000000000000000000000000000000000000000000000000000000000000000000000000000000000000000000000000000000000000000000000000000000000000000000000000000000000000000000000000000000000000000000000000000000000000000000000000000000000000000000000000000000000000000000000000000000000000000000000000000000000000000000000000000000000000000000000000000000000000000000000000000000000000000000000000000000000000000000000000000000000000000000000000000000000000000000000000000000000000000000000000000000000000000000000000000000000000000000000000000000000000000000000000000000000000000000000000000000000000000000000000000000000000000000000000000000000000000005300000000000000000000000000000000000000000000000000000000000000000000000000000000000000000000000000000000000000000000000000000000000000000000000000000000000000000000000000000000000000000000000000000000000000000000000000000000000000000000000000000000000000000000000000000000000000000000000000000000000000000000000000000000000000000000000000000000000000000000000000000000000000000000000000000000000000000000000000000000000000000000000000000000000000000000000000000000000000000000000000000000000000000000000000000000000000000000000000000000000000000000000000000000000000000000000000000000000000000000000000000000000000000000000000000000000000000000000000000000000000000000000000000000000000000000000000000000000000000000000000000000000000000000000000000000000000000000000000000000000000000000000000000000000000000000000000000000000000000000000000000000000000000000000000000000000000000000000000000000000000000000000000000000000000000000000000000000000000000000005300000000000000000000000000000000000000000000000000000000000000000000000000000000000000000000000000000000000000000000000000000000000000000000000000000000000000000000000000000000000000000000000000000000000000000000000000000000000000000000000000000000000000000000000000000000000000000000000000000000000000000000000000000000000000000000000000000000000000000000000000000000000000000000000000000000000000000000000000000000000000000000000000000000000000000000000000000000000000000000000000000000000000000000000000000000000000000000000000000000000000000000000000000000000000000000000000000000000000000000000000000000000000000000000000000000000000000000000000000000000000000000000000000000000000000000000000000000000000000000000000000000000000000000000000000000000000000000000000000000000000000000000000000000000000000000000000000000000000000000000000000000000000000000000000000000000000000000000000000000000000000000000000000000000000000000000000000000000000000000530000000000000000000000000000000000000000000000000000000000000000000000000000000000000000000000000000000000000000000000000000000000000000000000000000000000000000000000000000000000000000000000000000000000000000000000000000000000000000000000000000000000000000000000000000000000000000000000000000000000000000000000000000000000000000000000000000000000000000000000000000000000000000000000000000000000000000000000000000000000000000000000000000000000000000000000000000000000000000000000000000000000000000000000000000000000000000000000000000000000000000000000000000000000000000000000000000000000000000000000000000000000000000000000000000000000000000000000000000000000000000000000000000000000000000000000000000000000000000000000000000000000000000000000000000000000000000000000000000000000000000000000000000000000000000000000000000000000000000000000000000000000000000000000000000000000000000005300000000000000000000000000000000000000000000000000000000000000000000000000000000000000000000000000000000000000000000000000000000000000000000000000000000000000
#0703b0:23
#070370:0013000000000000
#0703b0:000000000053230000000000000000000000000000000000
#070321:0013000000000000
#070361:000000000053230000000000000000000000000000000000
#070361:00000000000000001300000000333300
#070321:00000000000000000000333300000000
#071321:23
#072341:0000000000000000000000000000000012525252220000000000000000000000
#072351:00000000000000000000000000000000000000000000000000000000000000000052005200520052000000000000000000000000000000000000000000000000
#0723a0:0000000000000000000000000000000000000000125252522200000000000000
#072390:00000000000000000000000000000000000000000000000000000000000000000000000000000000005200520052005200000000000000000000000000000000
