This file was generated by Ched 2.6.4.0.
#TITLE ""
#ARTIST ""
#DESIGNER ""
#DIFFICULTY 0
#PLAYLEVEL
#SONGID ""
#WAVE ""
#WAVEOFFSET 0
#JACKET ""
#REQUEST "ticks_per_beat 480"
#00002: 4
#BPM01: 129
#00008: 01
#TIL00: ""
#HISPEED 00
#MEASUREHS 00
#00312:00140014
#0031a:2414
#00418:1414
#00414:00140014
#0051a:1414
#00512:00140014
#00618:1414
#00614:00140000
#0071a:00140014
#00712:2414
#00710:41
#00814:1414
#00818:00140014
#00912:1414
#0091a:00140014
#01014:1414
#01018:00140000
#0111a:1414
#01114:00140014
#01318:1414
#01312:00140014
#01512:1414
#01518:00140014
#01714:1414
#0171a:00140014
#02318:1414
#02312:00140014
#0241a:1414
#02414:00140014
#0271a:00000014
#02712:14
#02818:00000014
#02814:14
#0291a:00000014
#02912:14
#02910:41
#03018:00000014
#03014:14
#03114:1414
#0311a:00140014
#03212:1414
#03218:00140014
#02214:00000014
#02218:14
#01912:00000014
#0191a:14
#01910:41
#02014:00000014
#02018:14
#02112:00000014
#0211a:14
#03314:14
#0331a:00140000
#03312:0014
#03318:00000014
#0351a:00140000
#03512:0014
#03518:00000014
#0351f:11
#03614:14
#0361a:00140000
#03612:0014
#03618:00000014
#03714:14
#0371a:00140000
#03712:0014
#03718:00000014
#03814:14
#0381a:00140000
#03812:0014
#03818:00000014
#04218:00140014
#04214:0014
#0431a:00140000
#04314:0014
#04318:00000014
#04312:24
#0431f:21
#04412:14
#0441a:00140000
#04414:0014
#04418:00000014
#04410:41
#04512:14
#0451a:00140000
#04514:0014
#04518:00000014
#04612:14
#0461a:00140000
#04614:00000014
#04712:00140000
#04718:0014
#04714:00000014
#0471a:24
#0481a:14
#04812:00140000
#04818:0014
#04814:00000014
#0491a:14
#04912:00140000
#04918:0014
#04914:00000014
#05118:00140000
#05112:0014
#0511a:00000014
#05114:24
#05214:14
#05218:00140000
#05212:0014
#0521a:00000014
#05412:14000014
#05416:00140000
#0541a:0014
#05410:41
#05514:00000014
#0551a:14
#05518:00140000
#05612:00000014
#05618:14
#0561a:00140000
#0571a:14
#05712:00140000
#05718:0014
#05714:00000014
#06314:00140000
#0631a:0014
#06312:00000014
#06318:24
#06310:41
#06418:14
#06414:00140000
#0641a:0014
#06412:00000014
#0661a:14000014
#06616:00140000
#06612:0014
#06718:00000014
#06712:14
#06714:00140000
#0681a:00000014
#06814:14
#06812:00140000
#05818:0014
#05814:00000014
#0581a:24240000
#05812:24240000
#07014:0014
#07018:00000014
#07012:24240000
#0701a:24240000
#07218:14
#07214:00140000
#07112:14
#07115:0000001400000000
#06012:14
#06014:0000001400000000
#0591a:14
#05918:0000001400000000
#06118:14
#0611a:0000001400000000
#06214:14
#0501a:14
#05018:00140000
#04112:14
#04115:00000000000000140000000000000000
#03412:0014
#00214:00140014
#00218:0014
#06912:14
#0691a:00140000
#06914:0014
#06918:00000014
#01419:00340000
#0141a:0034
#02519:00340000
#0251a:0034
#02619:00340000
#02618:0034
#01813:00340000
#01812:0034
#03554:14
#04352:14
#0475a:14
#05154:14
#06358:14
#06754:00240000
#06752:54
#06854:64
#06852:00240000
#07152:54
#07155:0000002400000000
#06052:54
#06054:0000002400000000
#0595a:64
#05958:0000002400000000
#06158:54
#0615a:0000002400000000
#06254:64
#0555a:64
#05558:00240000
#05658:54
#0565a:00240000
#0505a:64
#05058:00240000
#04152:54
#04155:00000000000000240000000000000000
#03452:0054
#02752:54
#02854:64
#02952:54
#03054:64
#0195a:64
#02058:54
#0215a:64
#02258:54
#012380:14240000
#012340:00001424
#014380:14
#014390:00340000
#0143a0:00003424
#016340:14240000
#016380:00001424
#018340:14
#018330:00340000
#018320:00003424
#0193a0:14
#019380:0024
#020380:14
#0203a0:0024
#0213a0:14
#021380:0024
#022380:14
#0223a0:0024
#025380:14
#025390:00340000
#0253a0:00003434
#0263a0:34
#026390:00340000
#026380:00003424
#027320:14
#027340:0024
#028340:14
#028320:0024
#029320:14
#029340:0024
#030340:14
#030320:0024
#034320:14343400
#035340:24
#039340:1434
#039320:00340024
#040380:1434
#0403a0:00340024
#041320:1400000000000024
#041350:00000000000000540000000000000000
#0503a0:1424
#050380:00540000
#053340:14240000
#053380:00001424
#0553a0:1424
#055380:00540000
#056380:1424
#0563a0:00540000
#0593a0:14000024
#059380:0000005400000000
#060320:14000024
#060340:0000005400000000
#061380:14000024
#0613a0:0000005400000000
#062340:14
#062320:0024
#065380:14240000
#065340:00001424
#067320:1424
#067340:00540000
#068340:1424
#068320:00540000
#071320:14000024
#071350:0000005400000000
#072380:00001424
