This file was generated by Ched 2.7.0.0.
#TITLE ""
#ARTIST ""
#DESIGNER ""
#DIFFICULTY 0
#PLAYLEVEL
#SONGID ""
#WAVE ""
#WAVEOFFSET 0
#JACKET ""
#REQUEST "ticks_per_beat 480"
#00002: 4
#BPM01: 217
#00008: 01
#TIL00: ""
#HISPEED 00
#MEASUREHS 00
#0261f:00110000
#07618:0016
#07518:00000016
#07512:16
#07412:00160000
#07318:0016
#07212:00000016
#07218:16
#06118:0016
#06012:00000016
#06018:16
#05718:16
#05612:00160000
#05412:16
#04912:0016
#04818:00000016
#04812:16
#04512:16
#04418:00160000
#04218:16
#04210:00000041
#02414:00000014
#0231a:00140000
#02112:00000014
#02018:00140000
#02010:00410000
#01814:00000014
#0171a:00140000
#01512:00000014
#01418:00140000
#01214:00000014
#00912:14
#00714:0014
#00618:00000014
#00610:00000041
#0081a:00140000
#0411f:00210000
#04112:00260000
#08812:0026
#08718:00000026
#08712:26
#08618:00260000
#06312:00000026
#06318:26
#06212:00260000
#05318:00260000
#05310:00410000
#06410:0041
#07710:00410000
#0003a0:00000014
#0023a0:00240000
#003320:00000014
#005320:00240000
#009380:00000014
#011380:00340000
#012380:24
#0263a0:00140000
#0273a0:00000024
#029340:00140000
#030340:00000024
#032380:00140000
#033380:00000024
#035320:00140000
#036320:00000024
#038390:00140000
#039390:00000034
#040390:0024
#042320:00000016
#043320:0026
#045380:00000016
#046380:0036
#047380:00260000
#050380:00160000
#051380:26
#051320:00000016
#052320:0026
#054380:00000016
#055380:0026
#057320:00000016
#058320:0036
#059320:00260000
#064380:00001636
#065380:36360000
#066370:00000026
#067320:0016
#068320:00360000
#069320:36000036
#071330:00260000
#077320:00160000
#078320:26
#078380:00000016
#079380:0026
#080320:00160000
#081320:36000036
#082320:0026
#083380:00160000
#084380:26
#084320:00000016
#085320:0026
#089380:00160000
#090370:36000036
#091380:0026
#092320:00160000
#093330:36000036
#094320:00003636
#095320:36
#101320:00240000
