This file was generated by Ched 2.7.0.0.
#TITLE ""
#ARTIST ""
#DESIGNER ""
#DIFFICULTY 0
#PLAYLEVEL
#SONGID ""
#WAVE ""
#WAVEOFFSET 0
#JACKET ""
#REQUEST "ticks_per_beat 480"
#00002: 4
#BPM01: 217
#00008: 01
#TIL00: ""
#HISPEED 00
#MEASUREHS 00
#0001b:0013
#00615:0013
#00612:00000013
#00610:00000041
#00712:0013
#00715:00130000
#0071a:24240024
#00815:0000130000000013
#00812:13
#0081a:24002424
#00115:1300001300000000
#0011b:0013000013000000
#00112:00000013
#00312:0013
#0031b:13000013
#00315:00000013
#00318:0013
#00416:0000000000000013
#00412:0013
#00418:0013000000000000
#0041b:0000003300000000
#00912:0013
#00915:00130000
#00918:13
#0091a:00242400
#01512:00130013
#01516:0013
#01517:00130013
#0151b:13
#0201b:00130013
#02018:0013
#02012:13
#02015:00000023
#02010:00410000
#02112:0013
#02118:1323
#02115:00000013
#0211b:00130000
#02615:0013000000000013
#02618:13000013
#0261b:00131300
#02616:0013
#02612:00130000
#0261f:00110000
#02715:0013
#0271b:13000013
#02718:0000000000130000
#02712:00000013
#0291b:13000013
#02915:0013000000000013
#02918:00130000
#02912:0000001300000000
#03018:1300000000130000
#03015:0013
#0301b:00000013
#03118:0000001300000000
#03112:00130000
#03115:0013
#03218:13130013
#03215:0013000023001300
#03219:0000000000000033
#03214:0000000000000033
#03315:00001313
#03318:0000000000130000
#03319:33
#03314:33
#03517:13130000
#03512:0013000000000000
#0351b:0000000000130000
#03515:00000013
#0391b:00130000
#03915:0000001300000000
#03918:0013
#03912:0000000000130000
#03916:00000024
#03817:13
#03812:0013000013000000
#03818:0000000000130000
#03815:00000013
#0381b:0000000000000013
#0411b:0013
#04118:0000260000130013
#04115:00000013
#04112:00130000
#0411f:00210000
#0421b:13000013
#04215:0013000000130000
#04218:00131300
#04212:0000001300000000
#04210:00000041
#04312:00131300
#0461a:0000001400000000
#04616:0014000000001400
#04612:00141400
#04712:0014000000000000
#0471a:14
#04716:00240000
#05112:14000014
#0511a:14001414
#05116:00140000
#0621a:14
#06216:0014000000000014
#06212:00240014
#06418:13132600
#06415:0013001300000000
#06412:00000026
#06410:0041
#07112:00160000
#0711b:0013
#07116:0000000000130000
#07119:00000013
#07114:0000000000000013
#07212:00131300
#07218:00000016
#07512:00130016
#07515:0000001300000000
#07518:1613
#0741b:1313
#07418:0000000000130000
#07415:00000013
#07412:00160000
#0761b:13
#07618:0013000016000000
#07615:00130000
#07612:00000016
#07718:16
#07712:00130000
#07716:0000000000130000
#07710:00410000
#09212:0013
#09215:00000013
#0921b:13
#09218:00160000
#02318:1313
#02315:0013000000000013
#02518:13130000
#02515:0013000000001300
#02512:0023
#0251b:0023
#02812:1313
#02818:0000001300000000
#02817:13
#02815:00130000
#03412:13
#03415:0013
#03418:0013
#0341b:23
#03612:13000013
#03616:0000001300000000
#03617:13000013
#0361b:0000001300000000
#03619:0000000000330000
#0361a:0033
#03614:0000000000330000
#03615:0033
#03717:0013
#0371b:00000013
#0491b:00130000
#04912:00130000
#04918:13
#04915:13
#06116:0014000000000000
#06112:00242400
#06615:16
#06618:00000016
#06912:0000001300000000
#0691b:0013
#06918:00000026
#06915:23
#06712:0000130000000013
#06718:0013
#06715:0023
#0681b:1300000000130000
#06812:00000013
#06818:00230000
#07015:0016
#0791b:0013
#07916:0014
#08016:0000000000000014
#08012:00140000
#0811a:00001414
#08116:0000000000140000
#08119:000000000034
#08118:000000000000000000000034
#08216:0014000000000014
#08212:0014
#08219:000000000034000000000000
#08218:343434343400000000000000
#08213:000000000000003400000000
#08214:000000000000000034343434
#08312:0014
#08316:0000000000140014
#0831a:00000014
#08318:00260000
#08313:003400000000
#08314:343400000000000000000000
#08412:14000026
#08414:00140000
#08416:0014
#0841b:00131300
#0851a:1414
#08516:0014001400000000
#08512:00140013
#08518:00000014
#08612:1314
#0861a:00000014
#08616:1400000000140000
#08618:00260000
#0871a:00140000
#08716:0000001400000000
#08712:2614
#08718:00000026
#08812:14002624
#08816:0014000000000000
#0881a:00142400
#08818:00000026
#08912:2613
#08914:00000013
#08918:00160000
#0891a:24
#09016:13
#09014:00130000
#09012:00001316
#0911b:13
#09119:00130013
#09117:0013
#0021b:13130000
#00216:00130000
#00215:0000000000000013
#00218:0000000000130000
#02212:1313
#02215:00230013
#02218:0013000000000000
#01416:0000000000000013
#0141b:00130000
#01412:0013
#01417:0000000000130000
#01812:0013
#01816:13000023
#01817:00130000
#0181b:23000000000000330000000023000000
#04818:13
#0501b:00130013
#05015:13
#05018:0013000000000000
#05012:00141300
#0051b:13
#00518:00130000
#00512:33
#01316:00002414
#01616:0013000000001300
#01617:0000001300000000
#0161b:13
#01612:0013
#01713:00130000
#01714:0013
#01715:00000013
#01717:23
#01718:00230000
#01719:0023
#0171a:00000023
#01912:1313
#01916:00130013
#04516:00000014
#04512:0014
#0451a:00002424
#05212:00140000
#05216:14000026
#05218:0026
#05312:00261300
#05315:0000000000130013
#05318:00000013
#0531b:00130000
#05314:26
#05310:00410000
#05412:13000013
#05418:0013000000130000
#05415:00131300
#0541b:0000001300000000
#0551b:00131300
#0581a:0000001400000014
#05812:0014000000000000
#05816:00141400
#05716:00000014
#0571a:0014
#05712:00002424
#05912:0014000000000000
#05916:14240000
#0631a:2414
#06316:0000000000140000
#06312:00000024
#0731b:00000013
#07312:13
#07317:0013000000000000
#07314:00130000
#07319:0000001300000000
#07817:13000013
#0781b:0000001300000000
#07816:0000001300000000
#07812:13
#0931b:00130000
#09318:00001316
#09312:16
#09412:1326
#09415:00130026
#09512:16
#09518:26
#0111a:00220000
#01216:22
#05616:00000023
#05612:23
#05617:23
#0561b:00000023
#0601a:24240024
#06016:24
#06012:0024
#06518:26
#06512:00260000
#0441b:00000023
#04418:23
#04415:23
#04412:00000023
#04016:34340000
#00855:00530000
#00456:0000000000000023
#00452:0053
#00458:0063000000000000
#01552:00000063
#0155b:63
#01557:00230000
#04152:00530000
#04158:00160000
#0425b:00000053
#04352:0013
#04357:0013
#05152:54000014
#0515a:14000054
#05156:00240000
#07152:00160000
#07652:00000016
#07658:0016
#07758:16
#07752:00530000
#07756:0000000000230000
#07452:00160000
#07558:16
#07552:00000016
#02852:0013
#02857:23
#02656:0023
#02652:00530000
#03058:13
#03155:0013
#03452:53
#03455:0023
#03458:0023
#0345b:53
#03255:00000053
#03258:00000053
#0355b:0000000000230000
#03557:00530000
#03652:53000053
#03656:0000002300000000
#03657:53000053
#0365b:0000002300000000
#04652:0054
#04656:00000024
#0495b:00230000
#04952:00230000
#04958:6313
#04955:6313
#06156:0024000000000000
#06152:0014
#0615a:0014
#06655:26
#06952:0000002300000000
#06958:00000066
#06955:53
#06752:0000000000000023
#06755:0053
#0685b:0000000000230000
#06858:00530000
#07055:0026
#0795b:0053
#07956:0054
#08056:0000000000000024
#08052:00540000
#0815a:00000064
#08256:0024000000000024
#08252:0054
#08958:00560000
#08952:16
#09052:00000056
#00355:00000053
#0205b:00130000
#02158:13
#02155:00000013
#02252:0013
#0275b:13000063
#0505b:00630000
#05052:00145300
#00256:00630000
#01356:00000024
#0145b:00530000
#01457:0000000000530000
#01452:00340000
#01656:0063000000002300
#01652:0053
#01857:00230000
#0185b:63
#02952:0000002300000000
#04556:00000024
#04558:13
#04555:13
#05256:24
#0535b:00630000
#05352:00160000
#05452:00000063
#0555b:0013
#05556:0013
#05756:00000024
#05752:13
#05757:13
#05856:0024
#07258:00000016
#07857:63000063
#0785b:0000002300000000
#07856:0000002300000000
#07852:63
#09258:00560000
#09352:66
#09358:00000056
#09552:56
#0605a:00000054
#06252:00140000
#0635a:14
#06352:00000014
#06458:0016
#06452:00000016
#06558:16
#06552:00560000
#08658:00160000
#08752:16
#08758:00000016
#08858:00000016
#08852:0016
#0445b:00130053
#04458:53
#04455:53
#04452:00130053
#08358:00160000
#08452:00000016
#04756:00140000
#02552:0013
#0255b:0013
#05956:00140000
#05656:00130000
#0565b:00130000
#02452:00000013
#0245b:00000013
#000350:0013
#000320:00000023
#000381:00000013
#0013b1:23
#002361:00130000
#002321:0000000000230000
#003351:00000013
#004321:0023000000000000
#004380:0013000000000000
#0043b0:0000003323000000
#004321:0013
#004361:0000000000000053
#005321:33230000
#0063c1:123232323200
#0063b1:003200320032003200220000
#008351:00130000
#008321:00000023
#009361:00000012
#011361:00220000
#012321:00001424
#012360:00000014
#0123a0:0000000000000054
#0133a0:0024
#013361:00001454
#014321:00240000
#0143b0:00130000
#014370:0023
#014370:0000000000130000
#0143b0:0000000000000023
#0153b0:1323
#015370:00330000
#015320:00000013
#016360:23
#016360:0013000000000000
#016320:0000002300000000
#016320:0013
#016360:00000033
#017320:23
#0183b0:13000000000000332300000000000000
#018370:00530000
#019370:1333
#0193b0:00330033
#020370:23
#020350:00130000
#020320:0023
#021320:13
#021350:00230000
#0213b0:00000013
#022380:23
#022380:0013
#0223b0:00000023
#023350:00130000
#023320:0000000000230000
#023381:0000000000130000
#0243b1:23
#024350:1333
#024320:00330023
#0243b1:00130023
#024381:0033
#026321:00130023
#026361:0033
#0273b1:00000013
#028371:33
#0283b1:00230000
#029321:0000001300000000
#029351:00000023
#030321:00000013
#031351:23
#031380:13
#0313b0:00230000
#032350:00001333
#032340:0000000000000033
#033340:33
#033320:00230000
#032381:00001333
#032391:0000000000000033
#033391:33
#0333b1:00230000
#0343b1:13000023
#034381:0000333333000000
#034320:13000023
#034350:0000333333000000
#035370:00130000
#0353b0:0000000000530000
#036370:33000033
#0363b0:0000003300000000
#0363a0:0033
#036390:0000000000330000
#0373b0:00230000
#036321:13000033
#036361:0000003300000000
#036351:0033
#036341:0000000000330000
#037361:00230000
#037321:0013
#037361:00000033
#038321:23
#0383b1:00130000
#038371:0023
#039321:13
#039361:00230000
#039361:00000014
#040361:34340000
#040331:002a
#041321:00130000
#041361:0023
#0423b1:00000013
#043371:00332300
#044381:13
#0443b1:00230000
#044350:13
#044320:00230000
#0443b0:00000013
#045380:23
#044321:00000013
#045351:23
#045361:00000014
#046321:0024000000000000
#046321:0014
#046361:00000054
#047321:24
#048321:13
#048351:00230000
#0483b0:00130000
#048380:0023
#048321:0013
#048351:00000023
#0483b0:00000013
#049380:3323
#0493b0:00330000
#049351:1323
#049321:00330000
#0503b1:00130000
#050371:0023
#050320:0013
#050360:00000023
#051320:1424
#051360:00540000
#0513a0:00000014
#052360:54
#0523a0:00240000
#0533b0:00130000
#053370:0023
#054320:00000013
#055360:00332300
#056320:13
#056360:00230000
#056371:13
#0563b1:00230000
#056361:00000013
#057321:23
#0563b0:00000013
#057370:23
#057360:00000014
#0583a0:0024000000000000
#058360:0014
#058320:0000000000000024
#060360:14
#060320:00240000
#0603a1:00140000
#060361:0024
#060320:0014
#060360:00000024
#0603a1:00000014
#061361:0054000000000000
#0613a1:0024
#065321:00160000
#066351:56
#066321:00000026
#067351:0013
#067321:0000000000000053
#068351:00230000
#068380:00130000
#0683b0:0000000000530000
#069380:23
#069351:13000023
#069321:0000005300000000
#069380:00000016
#070350:0056
#071380:00260000
#072370:1323
#0723b0:00330000
#073360:0013
#073320:00000033
#074360:23
#077320:00130000
#077360:0000000000530000
#078320:33000023
#078360:0000005300000000
#078371:13000033
#0783b1:0000005300000000
#0793b1:0033
#080371:00230000
#079360:0014
#080320:00340000
#080360:0000000000000054
#081320:0024
#0813a0:00000014
#081390:000000000034
#081380:000000000000000000000034
#082380:343434343400000000000000
#082360:0054000000000000
#082390:000000000034000000000000
#0823a0:0024
#082321:0014
#082331:000000000000003400000000
#082341:000000000000000034343434
#082361:0000000000000054
#083341:343400000000000000000000
#083331:003400000000
#083321:00240000
#089381:00160000
#0903b1:00000023
#090320:00000016
#092320:00230000
#092381:00160000
#0933b1:23
#093320:16000023
#093381:00000016
#0943b1:0023
#095321:16
#101321:00220000
