This file was generated by Ched 2.7.0.0.
#TITLE ""
#ARTIST ""
#DESIGNER ""
#DIFFICULTY 0
#PLAYLEVEL
#SONGID ""
#WAVE ""
#WAVEOFFSET 0
#JACKET ""
#REQUEST "ticks_per_beat 480"
#00002: 4
#BPM01: 217
#00008: 01
#TIL00: ""
#HISPEED 00
#MEASUREHS 00
#00012:0013
#00018:00000013
#00618:0013
#00610:00000041
#00115:0000001300001300
#00118:0013
#0011b:33
#00315:0013
#00318:13000013
#00712:00130000
#0081b:13
#00818:0000000000000013
#00815:00000013
#02615:0013000000001300
#02618:0000000000000013
#0261f:00110000
#02712:0013
#02715:13
#02718:0000000000130000
#02915:1300000000000013
#0291b:0013000000000000
#02912:00130000
#0301b:0000000000130000
#03015:00001313
#03018:13
#03118:0000001300000000
#03115:0013
#03112:13
#03518:13130000
#03515:0013000000000000
#03818:0013000000000000
#03812:13
#03815:00130000
#04115:00001313
#04118:0000000000130013
#0411a:00240000
#0411f:00210000
#0461a:0014001400000000
#04616:00141400
#0511b:13
#05112:00000014
#06212:14240000
#06218:0014000000000000
#0621a:00000014
#06214:0000000000000014
#07414:00001414
#07418:0000000000140000
#07512:14
#0751a:00000014
#07518:00141400
#07514:0000001400000000
#09215:0014
#09218:00000014
#0921b:13
#09212:00240000
#02818:00131300
#02815:0000001300000000
#03615:13
#03612:0000003333330000
#03718:0013
#0371b:00000013
#03712:0013
#03715:00000013
#06118:13
#06112:13
#06115:00130000
#0611b:00130000
#06615:16
#0711a:0000000000000014
#07115:00000014
#08016:0000000000000014
#0801a:00140000
#08212:0014
#08216:0014000000000014
#08213:000000000034003400000000
#08214:343434343400000034343434
#0831a:00001414
#08316:0000000000140000
#08312:00240000
#08313:003400000000
#08314:343400000000000000000000
#08412:14
#08418:00140000
#08414:0014
#0841a:00000024
#08618:14001414
#08614:0000000000140000
#08612:00240000
#08714:00141400
#08718:0000001400000000
#0871a:24
#08712:00000024
#08915:0013
#08918:00000013
#0891a:24
#08912:00230000
#09012:13
#09015:00130023
#09018:0013
#0911b:00130000
#09115:0013
#09118:13000013
#00218:13
#0021b:00130000
#00215:0000000000000013
#01216:00000014
#01215:23
#0151b:13
#01518:00130000
#01918:13000013
#01915:00130000
#0191b:0013
#01912:0013
#06312:00001424
#06318:0000000000140000
#0631a:24
#09312:14
#09315:00140000
#09318:0014
#09314:00000024
#09417:14000024
#0941a:00140000
#09414:0024
#0951a:14
#01412:0013
#01418:0000000000130000
#01415:0000000000000013
#01416:00240000
#02015:13000023
#02010:00410000
#02315:0013000000000013
#0231b:13130000
#02312:0013
#02318:0000000000130000
#03418:0000133333000000
#03415:0000133333000000
#03312:0013
#0331b:0023
#03318:33000033
#03315:33000033
#03319:0000000000330000
#03314:0000000000330000
#03218:0033000013003333
#0321b:13
#03215:0033000013003333
#03212:23
#03918:13
#03916:00000024
#04218:00000013
#04210:00000041
#04712:14
#04716:00240000
#04714:0034000000000000
#0481b:13
#04815:13
#0481a:00130000
#04814:00130000
#04813:0013
#04819:0013
#05018:13000013
#05015:0013000013000000
#05012:00130000
#05318:00001313
#05315:0000000000130013
#05314:24
#05312:00240000
#05310:00410000
#05415:00000013
#07015:0016
#06915:14
#06918:00000026
#07215:14
#07312:0000001400000000
#07317:00141400
#07612:0014
#07614:14140000
#07618:0014000000001400
#0771a:00140000
#07714:14
#07710:00410000
#07816:14000014
#07912:0014
#08112:00000014
#08113:000000000034
#08114:000000000000000000000034
#08512:14140000
#08516:0014000000000000
#0851a:0014
#08514:00000014
#08818:14140000
#08814:0014000000000000
#08812:00000024
#0881a:0024
#00412:0000000000000013
#00415:0013
#00418:0000001300000000
#00918:0013
#01012:0013
#0101b:00000013
#01115:13
#01118:00230000
#0131a:0014
#0241b:13
#02412:00130000
#02418:0013
#02415:00000013
#05812:0014001400000000
#05816:00141400
#0581a:0000000000000014
#0451a:00002424
#04512:00002424
#06412:0024
#06416:00000024
#06410:0041
#0651a:24
#06512:00260000
#0671a:0024
#01718:23000023
#01712:00230000
#01715:0023
#0181b:23000023
#01812:00000023
#02118:0023
#02212:00230000
#0441a:24000024
#04412:24000024
#0521a:0024
#05217:00000024
#02512:0023
#0251b:0023
#05612:24
#05618:24
#05614:00000024
#0561a:00000024
#05712:00002424
#0571a:00002424
#06812:00240000
#05916:00240000
#05918:0034000000000000
#0591a:34
#06012:23
#06013:00230000
#06014:0023
#06018:23
#06019:00230000
#0601a:0023
#0601b:00000023
#06015:00000023
#04016:34340000
#00515:33
#0515b:63
#05152:00000064
#07552:14
#0755a:00000014
#02858:0013
#03058:13
#03055:00000063
#03155:0013
#03152:23
#03655:63
#03558:00530000
#04656:0054
#06158:2313
#06152:2313
#06155:00530000
#0615b:00530000
#06655:26
#08056:0000000000000024
#0805a:00640000
#08252:0054
#08256:0024000000000024
#00358:00000053
#02755:13
#0025b:00630000
#01256:00000054
#0155b:63
#01558:00230000
#0955a:54
#00058:00000063
#03458:00230000
#03455:00230000
#03352:0053
#0335b:0053
#03258:0053
#0325b:53
#03255:0063
#03252:63
#03855:00630000
#03958:53
#04258:00000063
#04752:54
#04756:00140000
#05455:00000053
#07055:0026
#06955:54
#06958:00000066
#07255:54
#07252:00000014
#07357:0064
#07652:0014
#0775a:00640000
#07856:54000064
#07952:0054
#08152:00000054
#00452:0000000000000023
#00455:0063
#0135a:0024
#05856:0064
#0585a:0000000000000064
#02455:00000013
#0415a:00140000
#06252:00140000
#0635a:14
#06352:00000014
#06552:00560000
#0675a:0054
#08652:00140000
#0875a:14
#08752:00000014
#08852:00000014
#0885a:0014
#0895a:14
#0185b:63
#02552:0013
#0255b:0013
#05352:00140000
#01456:00140000
#06852:00640000
#08352:00140000
#0845a:00000014
#05956:00140000
#0605b:00000053
#06055:00000053
#0495b:0013
#04955:0013
#04458:00140000
#04454:00140000
#0435b:0013
#04558:14
#04554:14
#05654:00140000
#0565a:00140000
#05552:0013
#05752:14
#05758:14
#07158:00460000
#0745a:00140000
#000380:00000013
#0013b0:3323000000000000
#0023b0:00130000
#002380:0000000000230000
#003380:00000013
#0043b0:0023000000000000
#004350:0013
#004320:0000000000000053
#005350:33230000
#006380:00000013
#0073b0:23
#007320:0013
#007350:00000023
#0083b0:00130000
#008380:0023
#009350:13
#009320:00230000
#009380:00000013
#010380:0023000000000000
#0123a0:0014
#012360:00000034
#0133a0:0034
#014360:00240000
#0153b0:1323
#015380:00330000
#015320:00000013
#016350:3333000000002300
#016320:0000003333000000
#0183b0:13
#018380:0023
#020320:00130000
#020350:0023
#0213b0:13
#021380:00230000
#021350:00000013
#022320:23
#022380:0013
#0223b0:00000023
#0263b0:00130000
#026380:0023
#027320:00000013
#028350:23
#029380:0000001300002300
#030350:00000013
#031320:33
#031350:00230000
#0323b0:13
#032380:0033330033003333
#033380:33
#0333b0:00230000
#032321:13
#032351:0033330033003333
#033351:33
#033321:00230000
#033321:0013
#033341:0000000000330000
#033351:00000033
#034351:3300333333000000
#034321:00000023
#0333b0:0013
#033390:0000000000330000
#033380:00000033
#034380:3300333333000000
#0343b0:00000023
#035380:00130000
#0353b0:00000023
#036350:13
#036320:0000003333332300
#038350:00130000
#038320:00000023
#039380:13
#0393b0:0023
#039360:00000014
#040360:34340000
#040340:0028
#042350:13000023
#042340:0033000000330000
#042330:00333300
#042320:0000003300000000
#042381:00000013
#0433b1:00332300
#0443a1:14
#044381:00240000
#044320:14
#044340:00240000
#0443a0:00000014
#045380:24
#044321:00000014
#045341:24
#046361:0014
#047321:34
#047341:0034000000000000
#047361:00240000
#048381:00000013
#0493b1:3323
#049381:00330000
#048320:00000013
#049350:3323
#049320:00330000
#0513b0:13
#051370:0023
#051320:00000014
#052360:00240000
#054380:13000023
#054390:0033000000330000
#0543a0:00333300
#0543b0:0000003300000000
#054351:00000013
#055321:00332300
#056321:14
#056341:00240000
#056380:14
#0563a0:00240000
#056340:00000014
#057320:24
#0563a1:00000014
#057381:24
#058361:0014
#0583a1:0000000000000034
#0593a1:34
#059381:0034000000000000
#059361:00240000
#0603b1:00000013
#061381:5323
#0613b1:00330000
#060350:00000013
#061320:5323
#061350:00330000
#065320:00160000
#066350:56
#066320:00000026
#0673a0:0014
#068370:24
#068320:00140000
#069350:34
#069320:0024
#069380:00000016
#070350:0056
#071380:00260000
#072350:14
#072320:00000024
#073370:0014
#0743a0:00240000
#0773a0:00140000
#078360:34
#0783a0:00000024
#078361:00000014
#079321:0034
#080361:00240000
#0803a0:00140000
#080360:0000000000000054
#0813a0:0024
#081320:00000014
#081330:000000000034
#081340:000000000000000000000034
#082340:343434343400000034343434
#082360:0054000000000054
#082330:000000000034003400000000
#082320:0034
#083340:343400000000000000000000
#083330:003400000000
#083320:00240000
#0953a0:14
#1013c0:00220000
