This file was generated by Ched 2.7.0.0.
#TITLE ""
#ARTIST ""
#DESIGNER ""
#DIFFICULTY 0
#PLAYLEVEL
#SONGID ""
#WAVE ""
#WAVEOFFSET 0
#JACKET ""
#REQUEST "ticks_per_beat 480"
#00002: 4
#BPM01: 217
#00008: 01
#TIL00: ""
#HISPEED 00
#MEASUREHS 00
#07712:1400000000130018
#07716:18130000
#0771b:00130000
#07710:00410000
#0691b:1313
#06912:00140000
#06918:00000000000000000000000000000014
#06916:00000013
#06917:24130000
#0691a:00000024
#06812:00130013
#0681a:0014
#0681b:13
#06816:0013
#06815:00240000
#0501b:13130013
#05012:00191300
#05015:0016000000000000
#05116:0014
#05115:19
#05117:00130000
#0511b:00130013
#05112:1300000000131900
#04912:0013000000001300
#04918:1313
#04915:1300000013000016
#0491b:0013000000000000
#08712:28181814
#0871a:1400001400000000
#08716:0000000000142800
#08616:0000000018001814
#08612:18002c0000140000
#08816:1800181400002800
#08812:0014000028002400
#0881a:0024
#0241b:0013
#02416:000000000000000000000000000000000000000000000000000000000000000000000000000000000000000000000000000000000000000000000000000000000000000000000000000000000000000000000000000000000000000000000000000000000000000000000000000000000000000000000000000000000000000000000000000000000000000000000000000000000000000000000000000000000000000000000000000000000000000000000000000000000000000000000000000000000000000000000000000000000000000000000000000000000000000000000000000000000000000000000000000000000000000000000000000000000000000000000000000000000000000000000000000000000000000000000000000000000000000000000000000000000000000000000000000000000000000000000000000000000000000000000000000000000000000000000000000000000000000000000000000000000000000000000000000000000000000000000000000000000000000000000000000000000000000000000000000000000000000000000000000000000000000000000000000000000000000000000000000000000000000000000000000000000000000000000000000000000000000000000000000000000000000000000000000000000000000000000000000000000000000000000000000000000000000000000000000000000000000000000000000000000000000000000000000000000000000000000000000000000000000000000000000000000000000000000000000000000000000000000000000000000000000000000000000000000000000000000000000000000000000000000000000000000000000000000000000000000000000000000000000000000000000000000000000000000000000000000000000000000000000000000000000000000000000000000000000000000000000000000000000000000000000000000000000000000000000000000000000000000000000000000000000000000000000000000000000000000000000000000000000000000000000000000000000000000000000000000000000000000000000000000000000000000000000000000000000000000000000000000000000000000000000000000000000000000000000000000000000000000000000000000000000000000000000000000000000000000000000000000000000000000000000000000000000000000000000000000000000000000000000000000000000000000000000000000000000000000000000000000000000000000000000000000000000000000000000000000000000000000000000000000000000000000000000000000000000000000000000000000000000000000000000000000000000000000000000000000000000000000000000000000000000000000000000000000000000000000000000000000000000000000000000000000000000000000000000000000000000000000000000000000000000000000000000000000000000000000000000000000000000000000000000000000000000000000000000000000000000000000000000000000000000000000000000000000000000000000000000000140000001400000000000000000000000000000000000000000000000000000000000000000000000000000000000000000000000000000000000000000000000000000000000000000000000000000000000000000000000000000000000000000000000000000000000000000000000000000000000000000000000000000000000000000000000000000000000000000000000000000000000000000000000000000000000000000000000000000000000000000000000000000000000000000000000000000000000000000000000000000000000000000000000000000000000000000000000000000000000000000000000000000000000000000000000000000000000000000000000000000000000000000000000000000000000000000000000000000000000000000000000000000000000000000000000000000000000000000000000000000000000000000000000000000000000000000000000000000000000000000000000000000000000000000000000000000000000000000000000000000000000000000000000000000000000000000000000000000000000000000000000000000000000000000000000000000000000000000000000000000000000000000000000000000000000000000000000000000000000000000000000000000000000000000000000000000000000000000000000000000000000000000000000000000000000000000000000000000000000000000000000000000000000000000000000000000000000000000000000000000000000000000000000000000000000000000000000000000000000000000000000000000000000000000000000000000000000000000000000000000000000000000000000000000000000000000000000000000000000000000000000000000000000000000000000000000000000000000000000000000000000000000000000000000000000000000000000000000000000000000000
#02412:0013
#0121b:0013
#01216:22
#00212:00120000
#00217:1200000000120000
#00514:001a0000
#00512:00120000
#08217:000000000000000014000014000000140000000014001400
#08218:000000000000000000001400000000000014000000000000
#08215:000014001400000000140000001400001400000000000000
#08214:000000000000001400000000000014000000000000000000
#08216:14140014
#08213:001400140014000000000000000000000000000000000000
#08219:000000000000000000000000000000000000001400140014
#08212:0014
#08114:000000000000000000000000000000000000000000000014
#08117:000000000000000000000000000000000000001400001400
#08115:0000130000000014
#08118:130000130000000000001400
#0811a:00000014
#08112:00000000001c1300
#0811b:1313
#0781b:0000001300001300
#07816:0000000000181300
#07817:13
#07812:13
#06413:0000001800000000
#06415:0018000000000000
#06416:1824
#06414:00180024
#06418:00000024
#06412:0024
#06410:0041
#06212:18
#06214:0018000000000018
#06216:00240018
#0621a:00240000
#05912:001c260000001300
#05916:18
#05915:0000000000160016
#0591b:0013
#05918:00260000
#0581a:0000000000000014
#05812:0014181c16000000
#05818:00000000000000002600001600000000
#05718:00001616
#05712:00000000000000002600000026000016
#04618:0016
#04614:00000015
#04616:00140000
#0461a:0014000000000000
#04612:0000001426000000
#04712:14240000
#04716:0014000014001400
#04714:0000000000000013
#04719:0000000000130000
#0471b:00000013
#0471a:00240000
#0481b:00000013
#04816:14
#03418:00000000000013130000000000000000
#03415:00000000000013130000000000000000
#03412:13
#0341b:23
#00316:0012
#0031a:0012
#00314:00120000
#00312:1200001a
#0031c:00000012
#00014:0000001a
#00017:0012
#0001c:0012
#03516:1313130000000000
#0351b:0013
#03512:13130013
#03312:13000014
#03317:13
#03316:0000000000140000
#0331a:00001414
#09417:00140000
#09412:14000000241c001c
#09416:00000024
#09317:0013
#0931b:00130000
#09216:00000012
#09218:12
#09212:0012
#09012:18
#09018:0012
#0901a:00120000
#09016:00000018
#08912:28120000
#08916:00180012
#08914:0012
#0891a:24
#09112:0018
#0911a:00000012
#09116:00120000
#09114:12
#08412:1414000000002c00
#08416:0000141418000000
#07912:0013
#07914:0013000000000013
#07916:00130013
#07917:1313
#07919:0000001300000000
#0791b:00130000
#08019:0013000000000000
#08017:13
#08012:1313
#0801b:00130013
#08018:0013
#08016:00140000
#08015:00000013
#0761b:13130000
#07615:13130000
#07618:0013000000000000
#0761a:00000014
#07612:00001418
#07616:0018
#07512:00131318
#07518:00131300
#07515:0000001300000000
#07516:18
#0741b:00001313
#07415:00001313
#07418:0000000000130000
#07412:13180000
#07315:0013000000000013
#07312:00131313
#07318:13220000
#0731c:0022
#0731a:0000002200000000
#0721b:13131300
#07218:0000001300000000
#07216:00000018
#07212:22
#07118:00140000000000000000130000000000
#07112:13180000
#0711b:00000013
#07115:0013
#07114:0000000000000022
#07116:00000022
#07016:0014000013000014
#07018:00000000001400000000001400000000
#0701a:0014
#07012:13130013
#0671b:0013000013000000
#06717:00132413
#06712:00130014
#06716:13
#06314:0000000000180000
#06312:2418
#06316:24000024
#0631a:00000024
#04512:00001616
#04517:00000000000000000000000000000015
#04518:00002626
#05517:13
#0551b:13
#05516:00131300
#05416:0000000016130000
#05412:1613000000001300
#05418:00000016
#05414:0000161300000000
#05317:0013
#05316:00000013
#05318:1500000000000013
#0531b:00000013
#05314:0000000000130000
#05312:002c1300
#05313:25
#05310:00410000
#05214:00000014
#05218:00001324
#05216:13140000
#05212:13
#05215:0023
#04316:13
#04312:13
#04317:00131300
#04217:0000000000130000
#0421b:0013000000001300
#04212:00000016
#04214:0016
#04219:0000001300000000
#04216:00160000
#04218:16
#04210:00000041
#04116:0013
#04117:00000013
#04115:0000000000000013
#04112:002c0013
#04119:0000000000130000
#0411b:0013
#0411f:00210000
#03912:19130023
#03918:0000000000130000
#03916:0013
#03914:0000001300000000
#03915:00000029
#03815:1300190000000013
#03817:00000013
#03819:0000000000130000
#0381b:0013
#03818:0013000000000000
#0361b:1300001300001300
#03612:00000013000000000000000013000000
#03617:13
#03615:0000000000130000
#03618:0013
#03215:0000000000000013
#0321b:00000013
#03218:00000013
#0321a:00140000
#03216:0014000014000000
#03219:0000000000000013
#03212:14142400
#03116:0000001313001300
#0311b:0013000000001300
#03117:13
#03112:00131300
#0301b:13001313
#03017:13130000
#03012:00131313
#03016:0000000000140013
#0291b:1300001300001300
#02917:0000000000000013
#02912:1313
#02916:0014140000000000
#0281b:00000013
#02816:1300131313001300
#02812:1313
#02512:13130013
#02515:0016001623000000
#0251b:13130013
#02518:0000000023000013
#02612:13130000
#02615:0013000000000000
#0261b:13131300
#02617:0000000013001313
#0261f:00110000
#0271b:13001313
#02717:13130000
#02712:00131313
#02716:0000000000140000
#02219:0013001300000013
#02216:1313
#02212:00130013
#02217:00230000
#02112:00002313
#02114:0000001300000000
#0211b:00130000
#02117:1313
#02316:13
#02314:0013000000000000
#0231b:1300001313000000
#02312:0000000000001313
#02014:0000000000130000
#02016:13000023
#02017:0013
#0201b:00130013
#02010:00410000
#0191b:00000013
#01917:00130000
#01912:13
#01816:0014
#01815:000000000014340000000000000000000000000000000000
#01812:180000000014000000240000
#0181a:24000024
#0161a:14141414
#01612:0013
#01617:0013000000000000
#01512:14141413
#01516:00130000
#0151b:13
#0151a:00000014
#01412:00001414
#01416:0000000000130000
#0141b:00130000
#01418:333333330000000000000000000000000000000000000000
#0111a:12
#0111c:00220000
#01018:00000012
#0101c:0012000012000000
#0091c:00000012
#0091b:13130000
#00912:1323
#00916:0013
#00917:00230000
#00915:000000000000000000000000000000000000003300000000
#00816:00130000
#00812:0000130000130000
#00818:0000000000000013
#00817:13
#00815:00000023
#0081b:2323
#00712:13001313
#00717:00130000
#00716:23000023
#0071b:00230000
#00418:0012000000001200
#0041c:0012
#09512:18
#0951a:24
#01712:24121416
#01718:00000024
#01716:0024
#01714:00240000
#08316:1400280000140000
#0831a:0000000000000014
#08315:000014000014000000000000000000000000000000000000
#08314:001400000000
#08317:0014000000000000
#08318:001400000000000000000000000000000000000000000000
#06617:00000013
#06618:16
#06112:16262600
#0371b:0013
#03717:13
#03716:001300000000000000000000000000000000000000000000000000000000000000000000000000000000000000000000000000000000000000000000000000000000000000000000000000000000000000000000000000000000000000000000
#00112:00000012
#00117:0012000012000000
#00114:1200001200000000
#0061b:00000013
#00610:00000041
#0851a:0000000014140000
#08516:0014000000001414
#08512:0000001400000000
#05617:00000023
#0561a:00000024
#05616:23
#05612:24
#06518:00260000
#0651a:24
#06512:00260000
#06516:24
#06018:26260026
#06012:2626
#0401b:00230000
#04018:26
#04012:36390000
#04412:00000022
#04416:22
#04418:22
#0441c:00000022
#01318:000000000000000000000000230000333333333333333333
#06952:00240000
#06958:00000000000000000000000000000054
#06957:54
#0695a:00000024
#0685a:0024
#06855:00640000
#04952:0023000000000000
#04958:5313
#04955:6313
#0495b:0023000000000000
#0245b:0063
#02456:000000000000000000000000000000000000000000000000000000000000000000000000000000000000000000000000000000000000000000000000000000000000000000000000000000000000000000000000000000000000000000000000000000000000000000000000000000000000000000000000000000000000000000000000000000000000000000000000000000000000000000000000000000000000000000000000000000000000000000000000000000000000000000000000000000000000000000000000000000000000000000000000000000000000000000000000000000000000000000000000000000000000000000000000000000000000000000000000000000000000000000000000000000000000000000000000000000000000000000000000000000000000000000000000000000000000000000000000000000000000000000000000000000000000000000000000000000000000000000000000000000000000000000000000000000000000000000000000000000000000000000000000000000000000000000000000000000000000000000000000000000000000000000000000000000000000000000000000000000000000000000000000000000000000000000000000000000000000000000000000000000000000000000000000000000000000000000000000000000000000000000000000000000000000000000000000000000000000000000000000000000000000000000000000000000000000000000000000000000000000000000000000000000000000000000000000000000000000000000000000000000000000000000000000000000000000000000000000000000000000000000000000000000000000000000000000000000000000000000000000000000000000000000000000000000000000000000000000000000000000000000000000000000000000000000000000000000000000000000000000000000000000000000000000000000000000000000000000000000000000000000000000000000000000000000000000000000000000000000000000000000000000000000000000000000000000000000000000000000000000000000000000000000000000000000000000000000000000000000000000000000000000000000000000000000000000000000000000000000000000000000000000000000000000000000000000000000000000000000000000000000000000000000000000000000000000000000000000000000000000000000000000000000000000000000000000000000000000000000000000000000000000000000000000000000000000000000000000000000000000000000000000000000000000000000000000000000000000000000000000000000000000000000000000000000000000000000000000000000000000000000000000000000000000000000000000000000000000000000000000000000000000000000000000000000000000000000000000000000000000000000000000000000000000000000000000000000000000000000000000000000000000000000000000000000000000000000000000000000000000000000000000000000000000000000000000000000000000000000240000002400000000000000000000000000000000000000000000000000000000000000000000000000000000000000000000000000000000000000000000000000000000000000000000000000000000000000000000000000000000000000000000000000000000000000000000000000000000000000000000000000000000000000000000000000000000000000000000000000000000000000000000000000000000000000000000000000000000000000000000000000000000000000000000000000000000000000000000000000000000000000000000000000000000000000000000000000000000000000000000000000000000000000000000000000000000000000000000000000000000000000000000000000000000000000000000000000000000000000000000000000000000000000000000000000000000000000000000000000000000000000000000000000000000000000000000000000000000000000000000000000000000000000000000000000000000000000000000000000000000000000000000000000000000000000000000000000000000000000000000000000000000000000000000000000000000000000000000000000000000000000000000000000000000000000000000000000000000000000000000000000000000000000000000000000000000000000000000000000000000000000000000000000000000000000000000000000000000000000000000000000000000000000000000000000000000000000000000000000000000000000000000000000000000000000000000000000000000000000000000000000000000000000000000000000000000000000000000000000000000000000000000000000000000000000000000000000000000000000000000000000000000000000000000000000000000000000000000000000000000000000000000000000000000000000000000000000000000000000000000
#02452:00005334
#0245a:00000044
#00252:00620000
#00257:0000000000520000
#00554:005a0000
#00552:00120000
#08257:000000000000000064000024000000240000000054005400
#08258:000000000000000000006400000000000024000000000000
#08255:000064006400000000240000002400005400000000000000
#08254:000000000000002400000000000054000000000000000000
#08256:64640054
#08253:002400240024000000000000000000000000000000000000
#08259:000000000000000000000000000000000000002400240024
#08252:0054
#08154:000000000000000000000000000000000000000000000024
#08157:000000000000000000000000000000000000002400006400
#08155:0000530000000024
#08158:230000000064
#0815a:00000064
#07857:63
#07856:00000053
#05852:0066
#05858:00000000000000004600002600000000
#05758:00000056
#05752:13000000000000000000000036000026
#05755:14
#04658:0056
#04654:00000025
#03458:00000000000023630000000000000000
#03455:00000000000023530000000000000000
#03452:53
#0345b:53
#00352:1200006a
#00054:0000005a
#00057:0062
#03352:23
#03357:23
#09052:68000012
#09056:00000058
#0905c:12
#08952:38120000
#08956:00580000
#0895a:44
#09152:0068
#0915c:0012
#07957:0063
#07756:18530000
#07158:00540000000000000000000000000000
#07152:00180000
#07056:0024000000000024
#07058:00000000005400000000005400000000
#0705a:0024
#04552:00000066
#04557:00000000000000000000000000000025
#04556:12
#04558:12
#05557:23
#05556:0013
#05552:0013
#05452:00000063
#05052:00195300
#0505b:00630000
#04356:23
#04357:0013
#0435b:0013
#0365b:00000053
#03652:00000023000000000000000053000000
#03657:63
#0355b:0023
#03556:00530000
#03255:0000000000000053
#0325b:00000023
#03258:00000023
#03256:0054
#03259:0000000000000053
#03252:0054
#0315b:0023000000000000
#03157:53
#03156:0013
#03152:0013
#03057:13
#0305b:13
#03056:0000000000000023
#03052:00000053
#02757:13
#0275b:13000063
#02256:0033
#02152:00000033
#02157:43
#00458:0052000000002200
#0045c:0052
#09552:58
#08056:00540000
#08052:0023
#08055:00000053
#07256:00000018
#05256:23
#05258:00000014
#05255:0013
#05155:19
#05157:00230000
#0515b:00000053
#05152:53000019
#02952:0023
#01855:000000000024000000000000000000000000000000000000
#0185a:64
#01556:00230000
#0155b:63
#01552:00000053
#01652:0053
#01657:0063000000000000
#01456:0000000000530000
#0145b:00630000
#01452:00330000
#02856:2313
#02852:0013
#0205b:00430000
#08456:0048
#08452:0000003c
#06752:00000024
#06757:0054
#06658:26
#06152:2616
#06158:0016
#02652:00530000
#02657:0023
#07552:00000018
#07556:18
#07452:00180000
#07656:0018
#07652:00000018
#0425b:00000053
#00852:00530000
#03757:23
#03756:002300000000000000000000000000000000000000000000000000000000000000000000000000000000000000000000000000000000000000000000000000000000000000000000000000000000000000000000000000000000000000000000
#08355:000054000024000000000000000000000000000000000000
#08354:005400000000
#08357:0024000000000000
#08358:002400000000000000000000000000000000000000000000
#08356:54480000
#08652:384c0000
#08852:00003834
#08856:00000048
#0885a:0044
#08752:38
#08756:00000048
#0655a:14
#06552:00560000
#06556:14
#06458:00000014
#06456:0014
#06454:00000014
#06452:0014
#05958:00460000
#05952:00360000
#05352:001c0000
#05353:15
#04752:00340000
#0475a:00440000
#04452:00120052
#04456:52
#04458:52
#0445c:00120052
#02558:0013
#02555:0013
#0625a:00140000
#06256:00140000
#06058:00000056
#04152:001c0000
#03952:00000023
#06352:14
#06356:14000014
#0635a:00000014
#09352:00000012
#0935c:12
#09252:00120000
#0565b:00130000
#05657:00140000
#01358:0023
#000370:0012
#000320:00000022
#000341:0000001a
#0013c1:0052
#0033c1:22
#002320:0000120000000022
#002370:0000000000320000
#003321:0000001a
#004321:0052
#005321:00220000
#004380:0012000000000000
#0043c0:0000002200000000
#0043c0:0012
#004380:00000052
#0053c0:22
#005340:001a0000
#0063c0:5222
#006371:123232323200
#006361:003200320032003200220000
#008321:00130000
#008371:0023
#009371:00000013
#009351:000000000000000000000000000000000000003300000000
#009321:000000000033
#011321:00220000
#012371:0013
#012321:0000000000532300
#012360:00000013
#0123b0:0000000000000053
#0133b0:0023
#013381:000000000000000000000000130000333333333333333333
#014381:333333330000000000000000000000000000000000000000
#014321:00230000
#0143b0:00130000
#014360:0023
#014360:0000000000130000
#0143b0:0000000000000023
#0153b0:1323
#015360:00330000
#015320:00000013
#016370:23
#016370:0013000000000000
#016320:0000002300000000
#016320:0013
#016370:00000023
#0183a0:140000000024000000000000
#018350:000000000054340000000000000000000000000000000000
#019360:1323
#0193b0:00330000
#019321:0013
#019371:00000033
#020321:23
#020361:00130000
#020321:0023
#021321:13
#021361:00230000
#021371:00000013
#0223b1:23
#0223b1:0013
#022371:00000023
#023321:00130000
#023361:0000003323000000
#0233b1:0000000000130000
#023371:0000000000003323
#0243b1:13000000005300003300000000000000
#024381:00530000330000000000000000000000
#024361:000000000000000000000000000000000000000000000000000000000000000000000000000000000000000000000000000000000000000000000000000000000000000000000000000000000000000000000000000000000000000000000000000000000000000000000000000000000000000000000000000000000000000000000000000000000000000000000000000000000000000000000000000000000000000000000000000000000000000000000000000000000000000000000000000000000000000000000000000000000000000000000000000000000000000000000000000000000000000000000000000000000000000000000000000000000000000000000000000000000000000000000000000000000000000000000000000000000000000000000000000000000000000000000000000000000000000000000000000000000000000000000000000000000000000000000000000000000000000000000000000000000000000000000000000000000000000000000000000000000000000000000000000000000000000000000000000000000000000000000000000000000000000000000000000000000000000000000000000000000000000000000000000000000000000000000000000000000000000000000000000000000000000000000000000000000000000000000000000000000000000000000000000000000000000000000000000000000000000000000000000000000000000000000000000000000000000000000000000000000000000000000000000000000000000000000000000000000000000000000000000000000000000000000000000000000000000000000000000000000000000000000000000000000000000000000000000000000000000000000000000000000000000000000000000000000000000000000000000000000000000000000000000000000000000000000000000000000000000000000000000000000000000000000000000000000000000000000000000000000000000000000000000000000000000000000000000000000000000000000000000000000000000000000000000000000000000000000000000000000000000000000000000000000000000000000000000000000000000000000000000000000000000000000000000000000000000000000000000000000000000000000000000000000000000000000000000000000000000000000000000000000000000000000000000000000000000000000000000000000000000000000000000000000000000000000000000000000000000000000000000000000000000000000000000000000000000000000000000000000000000000000000000000000000000000000000000000000000000000000000000000000000000000000000000000000000000000000000000000000000000000000000000000000000000000000000000000000000000000000000000000000000000000000000000000000000000000000000000000000000000000000000000000000000000000000000000000000000000000000000000000000000000000000000000000000000000000000000000000000000000000000000000000000000000000000000000000000000000000000000005400000000000000000000000000000000000000000000000000000000000000000000000000000000000000000000000000000000000000000000000000000000000000000000000000000000000000000000000000000000000000000000000000000000000000000000000000000000000000000000000000000000000000000000000000000000000000000000000000000000000000000000000000000000000000000000000000000000000000000000000000000000000000000000000000000000000000000000000000000000000000000000000000000000000000000000000000000000000000000000000000000000000000000000000000000000000000000000000000000000000000000000000000000000000000000000000000000000000000000000000000000000000000000000000000000000000000000000000000000000000000000000000000000000000000000000000000000000000000000000000000000000000000000000000000000000000000000000000000000000000000000000000000000000000000000000000000000000000000000000000000000000000000000000000000000000000000000000000000000000000000000000000000000000000000000000000000000000000000000000000000000000000000000000000000000000000000000000000000000000000000000000000000000000000000000000000000000000000000000000000000000000000000000000000000000000000000000000000000000000000000000000000000000000000000000000000000000000000000000000000000000000000000000000000000000000000000000000000000000000000000000000000000000000000000000000000000000000000000000000000000000000000000000000000000000000000000000000000000000000000000000000000000000000000000000000000000000000000000000000
#0243a1:00000024
#024320:13000000005300003300000024000000
#024350:00530000330000000000000000000000
#024360:00000000000000000000000000000000000000000000000000000000000000000000000000000000000000000000000000000000000000000000000000000000000000000000000000000000000000000000000000000000000000000000000000000000000000000000000000000000000000000000000000000000000000000000000000000000000000000000000000000000000000000000000000000000000000000000000000000000000000000000000000000000000000000000000000000000000000000000000000000000000000000000000000000000000000000000000000000000000000000000000000000000000000000000000000000000000000000000000000000000000000000000000000000000000000000000000000000000000000000000000000000000000000000000000000000000000000000000000000000000000000000000000000000000000000000000000000000000000000000000000000000000000000000000000000000000000000000000000000000000000000000000000000000054000000000000000000000000000000000000000000000000000000000000000000000000000000000000000000000000000000000000000000000000000000000000000000000000000000000000000000000000000000000000000000000000000000000000000000000000000000000000000000000000000000000000000000000000000000000000000000000000000000000000000000000000000000000000000000000000000000000000000000000000000000000000000000000000000000000000000000000000000000000000000000000000000000000000000000000000000000000000000000000000
#026320:00130023
#026370:0033
#0273b0:00000013
#028360:33
#0283b0:00230000
#029320:0000001353000000
#029370:00000023
#030320:00000013
#030360:0000000000000053
#031320:23
#031371:13
#0313b1:0053000000000000
#031361:00230000
#032361:0014
#0323b1:00000033
#032391:0000000000000033
#033371:33
#0333c1:00220000
#032320:0014
#032380:00000033
#032350:0000000000000033
#033320:33
#033350:00220000
#0343b0:1333
#034350:0000333300000000
#034380:00000000000000530000000000000000
#0343c0:00000022
#034321:13003322
#034381:0000333300000000
#034351:00000000000000530000000000000000
#035361:00130023
#0353b1:0053
#036371:1300002300000000
#036321:00000053000000000000000000000000
#0363b1:00000013
#037371:53
#0373b1:00230000
#036320:00000013
#037360:005300000000000000000000000000000000000000000000000000000000000000000000000000000000000000000000000000000000000000000000000000000000000000000000000000000000000000000000000000000000000000000000
#037320:00230000
#037370:0013
#037320:00000023
#037361:00000013
#0383b1:23
#038321:00130023
#0393b1:1323
#039321:00000013
#040321:36392c00
#0423b1:00000013
#043361:53
#0433b1:00332300
#044361:12
#044321:0052220000000000
#044380:12
#0443c0:0052220000000000
#044320:00000012
#044360:0000000000000052
#045360:22
#0443c1:00000012
#044381:0000000000000052
#045381:22
#045321:00000016
#045371:00000000000000000000000000000055
#046321:0024000000000000
#046381:0016
#046341:00000055
#0473a1:24
#048321:13
#048371:00230000
#0483b0:00130000
#048360:0023
#048321:0013
#048371:00000023
#049351:13230000
#049321:0033000000000000
#049380:13230000
#0493b0:0033000000000000
#0503b0:00130000
#050360:0023
#050321:0013
#050371:00000023
#051321:1323
#051371:00530000
#0513b1:00000013
#052361:53
#0523b1:00230000
#054321:00000013
#055371:53
#055321:00332300
#056361:13
#0563b1:0053230000000000
#056320:14
#056370:0054240000000000
#056370:00000013
#056320:0000000000000053
#057320:23
#0563a1:00000014
#056351:0000000000000054
#057351:24
#057381:00000016
#057321:00000000000000000000000000000056
#058381:0026000000000000
#058321:0000000016000026
#058381:00000000000000000000005600000000
#060321:16
#060351:000000000000000000000000000000000000000000000000000000000000000000000000000000000000000000000000000000000000000000000000000000000000000000000000000000000000000000000000000000000000000000000000000000000000000000000000000000000000000000000000000000000000000000000000000000000000000000000000000000000000000000000000000000000000000000000000000000000000000000000000000000000000000000000000000000000000000000000000000000000000000000000000000000000000000000000000000000000000000000000000000000000000000000000000000000000000000000000000000000000000000000000000000000000000000000000000000000000000000000000000000000000000000000000000000000000000000000000000000000000000000000000000000000000000000000000000000000000000000000000000000000000000000000000000000000000000000000000000000000000000000000000000000000000000000000000000000000000000000000000000000000000000000000000000000000000000000000000000000000000000000000000000000000000000000000000000000000000000000000000056230000000000000000000000000000000000000000000000000000000000000000000000000000000000000000000000000000000000000000000000000000000000000000000000000000000000000000000000000000000000000000000000000000000000000000000000000000000000000000000000000000000000000000000000000000000000000000000000000000000000000000000000000000000000000000000000000000000000000000000000000000000000000000000000000000000000000000000000000000000000000000000000000000000000000000000000000000000000000000000000000000000000000000000000000000000000000000000000000000000000000000000000000000000000000000000000000000000000000000000000000000000000000000000000000000000000000000000000000000000000000000000000000000000000000000000000000000000000000000000000000000000000000000000000000000000000000000000000000000000000000000000000000000000000000000000000000000000000000000000000000000000000000000000000000000000000000000000000000000000000000000000000000000000000000000000000000000000000000000000000000000000000000000000000000000000000000000000000000000000000000000000000000000000000000000000000000000000000000000000000000000000000000000000000000000000000000000000000000000000000000000000000000000000000000000000000000000000000000000000000000000000000000000000000000000000000000000000000000000000000000000000000000000000000000000000000000000000000000000000000000000000000000000000000000000000000000000000000000000000000000000000000000000000000000000000000000000000000000000000000000000000000000000000000000000000000000000000000000000000000000000000000000000000000000000000000000000000000000000000000000000000000000000000000000000000000000000000000000000000000000000000000000000000000000000000000000000000000000000000000000000000000000000000000000000000000000000000000000000000000000000000000000000000000000000000000000000000000000000000000000000000000000000000000000000000000000000000000000000000000000000000000000000000000000000000000000000000000000000000000000000000000000000000000000000000000000000000000000000000000000000000000000000000000000000000000000000000000000000000000000000000000000000000000000000000000000000000000000000000000000000000000000000000000000000000000000000000000000000000000000000000000000000000000000000000000000000000000000000000000000000000000000000000000000000000000000000000000000000000000000000000000000000000000000000000000000000000000000000000000000000000000000000000000000000000000000000000000000000000000000000000000000000000000000000000000000000000000000000000000000000000000000000000000000000000000000000000000000000000000000000000000000000000000000000000000000000000000000000000000000000000000000000000000000000000000000000000000000000000000000000000000000000000000000000000000000000000000000000000000000000000000000000000000000000000000000000000000000000000000000000000000000000000000000000000000000000000000000000000000000000000000000000000000000000000000000000000000000000000000
#060380:00162300
#060350:000000000000000000000000000000000000000000000000000000000000000000000000000000000000000000000000000000000000000000000000000000000000000000000000000000000000000000000000000000000000000000000000000000000000000000000000000000000000000000000000000000000000000000000000000000000000000000000000000000000000000000000000000000000000000000000000000000000000000000000000000000000000000000000000000000000000000000000000000000000000000000000000000000000000000000000000000000000000000000000000000000000000000000000000000000000000000000000000000000000000000000000000000000000000000000000000000000000000000000000000000000000000000000000000000000000000000000000000000000000000000000000000000000000000000000000000000000000000000000000000000000000000000000000000000000000000000000000000000000000000000000000000000000000000000000000000000000000000000000000000000000000000000000000000000000000000000000000000000000000000000000000000000000000000000000000000000000000000000000000000000000000000000000000000000000000000000000000000000000000000000000000000000000000000000000000000000000000000000000000000000000000000000000000000000000000000000000000000000000000000000000000000000000000000000000000000000000000000000000000000000000000000000000000000000000000000000000000000000000000000000000000000000000000000000000000000000000000000000000000000000000000000000000000000000000000000000000000000000000000000000000000000000000000000000000000000000000000000000000000000000000000000000000000000000000000000000000000000000000000000000000000000000000000000000000000000000000000000000000000000000000000000000000000000000000000000000000000000000000000000000000000000000000000000000000000000000000000000000000000000000000000000000000000000000000000000000000000000000000000000000000000000000000000000000000000000000000000000000000000000000000000000000000000000000000000000000000000000000000000000000000000000000000000000000000000000000000000000000000000056000000000000000000000000000000000000000000000000000000000000000000000000000000000000000000000000000000000000000000000000000000000000000000000000000000000000000000000000000000000000000000000000000000000000000000000000000000000000000000000000000000000000000000000000000000000000000000000000000000000000000000000000000000000000000000000000000000000000000000000000000000000000000000000000000000000000000000000000000000000000000000000000000000000000000000000000000000000000000000000000000000000000000000000000000000000000000000000000000000000000000000000000000000000000000000000000000000000000000000000000000000000000000000000000000000000000000000000000000000000000000000000000000000000000000000000000000000000000000000000000000000000000000000000000000000000000000000000000000000000000000000000000000000000000000000000000000000000000000000000000000000000000000000000000000000000000000000000000000000000000000000000000000000000000000000000000000000000000000000000000000000000000000000000000000000000000000000000000000000000000000000000000000000000000000000000000000000000000000000000000000000000000000000000000000000000000000000000000000000000000000000000000000000000000000000000000000000000000000000000000000000000000000000000000000000000000000000000000000000000000000000000000000000000000000000000000000000000000000000000000000000000000000000000000000000000000000000000000000000000000000000000000000000000000000000000000000000000000000000000000000000000000000000000000000000000000000000000000000000000000000000000000000000000000000000000000000000000000000000000000000000000000000000000000000000000000000000000000000000000000000000000000000000000000000000000000000000000000000000000000000000000000000000000000000000000000000000000000000000000000000000000000000000000000000000000000000000000000000000000000000000000000000000000000000000000000000000000000000000000000000000000000000000000000000000000000000000000000000000000000
#060321:0016
#060351:000000000000000000000000000000000000000000000000000000000000000000000000000000000000000000000000000000000000000000000000000000000000000000000000000000000000000000000000000000000000000000000000000000000000000000000000000000000000000000000000000000000000000000000000000000000000000000000000000000000000000000000000000000000000000000000000000000000000000000000000000000000000000000000000000000000000000000000000000000000000000000000000000000000000000000000000000000000000000000000000000000000000000000000000000000000000000000000000000000000000000000000000000000000000000000000000000000000000000000000000000000000000000000000000000000000000000000000000000000000000000000000000000000000000000000000000000000000000000000000000000000000000000000000000000000000000000000000000000000000000000000000000000000000000000000000000000000000000000000000000000000000000000000000000000000000000000000000000000000000000000000000000000000000000000000000000000000000000000000000000000000000000000000000000000000000000000000000000000000000000000000000000000000000000000000000000000000000000000000000000000000000000000000000000000000000000000000000000000000000000000000000000000000000000000000000000000000000000000000000000000000000000000000000000000000000000000000000000000000000000000000000000000000000000000000000000000000000000000000000000000000000000000000000000000000000000000000000000000000000000000000000000000000000000000000000000000000000000000000000000000000000000000000000000000000000000000000000000000000000000000000000000000000000000000000000000000000000000000000000000000000000000000000000000000000000000000000000000000000000000000000000000000000000000000000000000000000000000000000000000000000000000000000000000000000000000000000000000000000000000000000000000000000000000000000000000000000000000000000000000000000000000000000000000000000000000000000000000000000000000000000000000000000000000000000000000000000000000000000000000000000000000000000000000000000000000000000000000000000000000000000000000000000000000000000000000000000000000000000000000000000000000000000000000000000000000000000000000000000000000000000000000000000000000000000000000000000000000000000000000000000000000000000000000000000000000000000000000000000000000000000000000000000000000000000000000000000000000000000000000000000000000000000000000000000000000000000000000000000000000000000000000000000000000000000000000000000000000000000000000000000000000000000000000000000000000000000000000000000000000000000000000000000000000000000000000000000000000000000000000000000000000000000000000000000000000000000000000000000000000000000000000000000000000000000000000000000000000000000000000000000000000000000000000000000000000000000000000000000000000000000000000000000000000000000000000000000000000000000000000000000000000000000000000000000000000000000000000000000000000000000000000000000000000000000000000000000000000000000000056230000000000000000000000000000000000000000000000000000000000000000000000000000000000000000000000000000000000000000000000000000000000000000000000000000000000000000000000000000000000000000000000000000000000000000000000000000000000000000000000000000000000000000000000000000000000000000000000000000000000000000000000000000000000000000000000000000000000000000000000000000000000000000000000000000000000000000000000000000000000000000000000000000000000000000000000000000000000000000000000000000000000000000000000000000000000000000000000000000000000000000000000000000000000000000000000000000000000000000000000000000000000000000000000000000000000000000000000000000000000000000000000000000000000000000000000000000000000000000000000000000000000000000000000000000000000000000000000000000000000000000000000000000000000000000000000000000000000000000000000000000000000000000000000000000000000000000000000000000000000000000000000000000000000000000000000000000000000000000000000
#060380:00000016
#061320:56
#061380:00362600
#065320:00160000
#066380:56
#066320:00000023
#067370:0014
#067320:00000054
#068370:24
#068350:00140024
#0683a0:0054
#069370:1424
#069320:00540000
#0693a0:00000014
#069380:00000000000000000000000000000054
#070360:0054000000000054
#070380:00000000005400000000005400000000
#0703a0:0054
#071380:00540000000000000000000000000000
#0713a0:00240000
#072320:125252525252525252220000
#072330:005200520052005200520052005200520052000000000000
#0733c0:000000000000125252525252
#0733b0:000000000000000000000000005200520052005200520052
#0743c0:525252220000000000000000
#0743b0:005200520052000000000000000000000000000000000000
#077360:00130000
#077320:0023
#077371:0000000013230000
#0773b1:0000000000001323
#078371:13
#0783b1:00230000
#078360:0000132300000000
#078320:0000000013230000
#078360:00000013
#079320:23
#079370:0013
#0793b0:00000023
#080360:00140000
#080320:0053
#080350:00000053
#081380:53
#081350:00530000
#081320:0023
#0813a0:00000014
#081370:000000000000000000000000000000000000005400003400
#081380:000000000034
#081350:0000000000000054
#081340:000000000000000000000000000000000000000000000054
#082360:34340000
#082330:005400540054000000000000000000000000000000000000
#082350:000034003400000000540000000000000000000000000000
#082340:000000000000005400000000000000000000000000000000
#082370:000000000000000034000054000000000000000000000000
#082380:000000000034000000000000
#0823a0:0024
#082321:0014
#082351:000000000000000000000000005400003400000000000000
#082341:000000000000003400000000
#082371:000000000000000000000000000000540000000034003400
#082381:000000000000000000000000000000000054000000000000
#082361:00000034
#082391:000000000000000000000000000000000000005400540054
#083361:34
#083381:005400000000000000000000000000000000000000000000
#083351:000034000054000000000000000000000000000000000000
#083371:0054000000000000
#083341:003400000000
#083321:00240000
#0833a1:0000000014240000
#083321:0000000000001424
#084361:1424000000000000
#0843a1:0000142400000000
#085321:1424000000000000
#0853a1:0000142400000000
#085361:0000000014240000
#085321:0000000000001424
#089361:00180000
#0903c1:22
#090320:18000022
#090361:00000018
#0913c1:0022
#091320:0018
#092320:00220000
#0923c1:00123232
#0923b1:0000003200320032
#0933c1:22
#093320:12323222
#093330:0032003200320000
#0933c1:00000012
#0933b1:0000000000000032
#0943c1:32322200
#0943b1:0032003200000000
#095321:18
#101321:00220000
