This file was generated by Ched 2.7.0.0.
#TITLE ""
#ARTIST ""
#DESIGNER ""
#DIFFICULTY 0
#PLAYLEVEL
#SONGID ""
#WAVE ""
#WAVEOFFSET 0
#JACKET ""
#REQUEST "ticks_per_beat 480"
#00002: 4
#BPM01: 217
#00008: 01
#TIL00: ""
#HISPEED 00
#MEASUREHS 00
#0061a:0014
#00614:00000014
#00610:00000041
#00718:00140000
#00712:0014
#0081a:14
#00814:00140000
#00818:00000014
#00912:14
#0091a:0014
#01512:14
#02018:14240000
#02014:00000014
#02010:00410000
#0211a:00001424
#02114:24
#02212:00142400
#02318:00140014
#02314:0014
#02414:14
#0241a:00140014
#02412:0014
#03214:00140000
#03218:0014
#03212:00000014
#0321a:14
#0331a:14
#03318:00000014
#03312:0014
#03414:14
#0341a:00140000
#03412:0014
#03518:14
#03514:00140000
#03612:14
#03614:00000014
#03818:00140000
#0391a:14
#04014:0014
#04114:0014
#04118:00260014
#0411f:00210000
#04212:14
#04218:00140000
#04214:0014
#0421a:00000014
#04210:00000041
#0441a:00140000
#04414:24
#04412:00000024
#04518:14
#04514:0024
#04814:14
#0481a:00140000
#04812:0014
#04818:00000014
#04912:14
#0491a:00140000
#04914:0014
#05018:14
#05012:00140000
#0501a:0014
#05014:00000014
#0511a:14
#05112:00000014
#05318:2614
#05314:00000014
#05312:00260000
#05310:00410000
#0541a:14
#05414:00140000
#05418:0014
#05412:00000014
#05612:00140000
#05618:24
#0561a:00000024
#05714:14
#05718:0024
#06018:14
#06012:00140000
#0601a:0014
#06014:00000014
#06212:00140000
#06218:24
#0621a:00000024
#06314:14
#06312:00000014
#06318:0024
#01714:00140000
#0181a:14
#06418:0016
#06412:00000016
#06410:0041
#06518:16
#06512:00160000
#06614:16
#06916:00000016
#06918:16
#07018:0016
#06718:0016
#06816:00160000
#07514:14
#0751a:00000014
#07612:0014
#0801a:00140000
#08118:14
#0811a:00000014
#08312:00140000
#08414:14
#08412:00000014
#0261f:00110000
#0261a:00003434
#01418:00240000
#02512:0024
#05218:0026
#05212:00000026
#08618:00240000
#08714:24
#0871a:00000024
#08812:0024
#02812:34340000
#03114:34340000
#02918:00003434
#07710:00410000
#03554:00540000
#03652:54
#03654:00000054
#03858:00640000
#0395a:64
#0425a:00000054
#0515a:54
#05152:00000064
#05452:00000064
#06054:00000054
#06552:00660000
#06654:26
#06956:00000066
#06958:66
#07058:0026
#06758:0066
#06856:00660000
#07554:14
#0755a:00000014
#07652:0014
#0805a:00540000
#08158:24
#0815a:00000054
#08352:00640000
#08454:24
#08452:00000064
#01458:00140000
#08658:00140000
#08754:14
#0875a:00000014
#08852:0014
#0475a:00140000
#05952:00140000
#07458:00140000
#0003a0:00000014
#001380:0034
#0023a0:00340000
#003380:24
#003320:00000014
#004340:0034
#005320:00340000
#006340:24
#009340:00000014
#011320:00340000
#012320:24
#0123a0:00000014
#014380:00240000
#015380:00000014
#0163a0:0024
#018340:00000014
#019320:0024
#0263a0:00143434
#027380:24
#027320:00000014
#028320:34340000
#028340:0024
#029380:00143434
#0303a0:24
#030340:00000014
#031340:34340000
#031320:0024
#035340:00140000
#036320:34
#036340:00000034
#037320:0024
#038380:00140000
#0393a0:34
#039380:00000024
#0423a0:00000014
#043380:00342400
#0453a0:00000014
#046370:0034
#0473a0:00240000
#0513a0:14
#051380:0024
#051320:00000014
#052340:00240000
#054320:00000014
#055340:00342400
#057320:00000014
#058350:0034
#059320:00240000
#060340:00000014
#061320:00342400
#065320:00160000
#066340:56
#066320:00000026
#067380:0016
#068360:00360000
#069380:36
#069360:00000036
#070380:0056
#071360:00260000
#072320:14
#072340:00000024
#0733a0:0014
#074380:00240000
#0773a0:00140000
#078380:24
#078320:00000014
#079340:0024
#0803a0:00140000
#081380:54
#0813a0:00000034
#082380:0024
#083320:00140000
#084340:54
#084320:00000034
#085340:0024
#089380:00140000
#090380:24
#090340:00000014
#091340:0024
#0923a0:00140000
#0933a0:24
#093320:00000014
#094320:00003434
#095320:34
#101320:00230000
