This file was generated by Ched 2.6.4.0.
#TITLE ""
#ARTIST ""
#DESIGNER ""
#DIFFICULTY 0
#PLAYLEVEL
#SONGID ""
#WAVE ""
#WAVEOFFSET 0
#JACKET ""
#REQUEST "ticks_per_beat 480"
#00002: 4
#BPM01: 190
#BPM02: 200
#BPM03: 210
#BPM04: 220
#BPM05: 230
#BPM06: 170
#BPM07: 180
#BPM08: 185
#BPM09: 195
#00008: 01
#08708: 01
#06108: 0002
#08908: 02
#06208: 0304
#06308: 05
#08108: 06
#08508: 07
#08608: 08
#08808: 09
#TIL00: ""
#HISPEED 00
#MEASUREHS 00
#0011a:14
#00214:14
#00318:14
#00412:14
#0051a:14
#00614:14
#00718:14
#00812:14
#0171a:14
#01710:41
#01814:14
#02112:14
#02218:14
#02518:14
#02612:14
#02914:14
#0301a:14
#0331a:14
#03310:41
#03414:14
#03518:14
#03612:14
#0371a:14
#03814:14
#03918:14
#04012:14
#0411a:14
#0421a:14
#04314:14
#04414:14
#04518:14
#04618:14
#04712:14
#04812:14
#0651a:14
#06510:41
#06614:14
#0671a:14
#06814:14
#06918:14
#07012:14
#07118:14
#07212:14
#0901a:14
#09114:14
#09214:14
#09318:14
#09418:14
#09512:14
#09612:14
#09712:0016
#09718:26
#0971f:21
#09918:0016
#09912:26
#09910:41
#10118:1616
#10212:1616
#10518:0016
#10512:26
#10712:0016
#10718:26
#10912:1616
#11018:1616
#11318:16
#11312:0016
#11310:41
#11418:16
#11412:0016
#11718:16
#11712:0016
#11818:16
#11812:0016
#12118:1616
#12212:1616
#12518:1616
#12612:1616
#0851f:11
#04910:41
#0093a0:14
#0103a0:24
#011340:14
#012340:24
#013380:14
#014380:24
#015320:14
#016320:24
#0193a0:14
#0203a0:24
#023320:14
#024320:24
#027380:14
#028380:24
#031340:14
#032340:24
#0493a0:14
#050380:34
#0513a0:34
#052380:24
#053320:14
#054340:34
#055320:34
#056340:24
#057380:14
#0583a0:34
#059380:34
#0603a0:24
#061340:14
#061330:0034
#062320:34
#062330:0034
#063340:34343434
#064340:24
#0733a0:14
#074380:24
#075320:14
#076340:24
#0773a0:14
#078380:24
#079320:14
#080340:24
#0813a0:14
#082390:34
#083380:34
#084390:34
#0853a0:34
#086380:34
#0873a0:34
#088380:34
#0893a0:24
#098380:1626
#100320:1626
#103380:1636
#104380:3626
#106320:1626
#108380:1626
#111320:1636
#112320:3626
#115380:1626
#116320:1626
#119380:1626
#120320:1626
#123380:1626
#124320:1626
#127380:1626
#128320:16003600003600003600003600002600
