This file was generated by Ched 2.6.4.0.
#TITLE ""
#ARTIST ""
#DESIGNER ""
#DIFFICULTY 0
#PLAYLEVEL
#SONGID ""
#WAVE ""
#WAVEOFFSET 0
#JACKET ""
#REQUEST "ticks_per_beat 480"
#00002: 4
#BPM01: 190
#BPM02: 200
#BPM03: 210
#BPM04: 220
#BPM05: 230
#BPM06: 170
#BPM07: 180
#BPM08: 185
#BPM09: 195
#00008: 01
#08708: 01
#06108: 0002
#08908: 02
#06208: 0304
#06308: 05
#08108: 06
#08508: 07
#08608: 08
#08808: 09
#TIL00: ""
#HISPEED 00
#MEASUREHS 00
#0611b:13002313
#06112:23131300
#06117:00130000
#06116:00000013
#06212:23141400
#0621a:14002414
#06216:00140014
#0631a:14240000
#06316:0014000000000000
#06312:24142516
#06315:0000001600000000
#06314:0000000000180000
#06319:0015
#06318:00000026
#0871c:12
#08712:12
#08715:00331333
#08718:00331333
#0851c:12
#08517:0012
#0851f:11
#08612:12
#08617:00000000000000000012000000000000
#08418:12
#08416:12
#0881b:13
#08812:13
#08818:0033331434340000
#08814:0000001434340000
#08815:0033330000000000
#08018:0000000000001313
#08015:00000000000000000000000000130013
#0801b:13130000
#08019:0000001300000000
#08016:00130000
#08014:0000001300000000
#08012:0013000013000000
#08017:0013
#10412:000000000000001400240014
#10418:000000241400
#10416:001400000000000000001400
#1041a:241414000000
#10414:000000240014000000000000
#1251b:13
#12517:00130000000013000000130000000013
#12519:0013000000000013
#12515:00000013000000000000000000130000
#12518:00130013
#12513:00000000001300000000001300000000
#12512:00000000000000130013000000000000
#12516:0013
#1261b:1313
#12612:00130000000000000013000000000000
#12619:0013001300130013
#12615:00000013000000000000001300000000
#12617:00130013
#12616:00000000001300000000000000130000
#12614:00000000000000130000000000000013
#12712:00001300000000000000000000000013
#1271b:0000130000130000
#12717:00000000000000130000000000001300
#12716:00000000000000000000001300000000
#12719:00000013
#12714:00000000000000000000000000130000
#11316:0000000000130000
#1131b:23000000000000000000001300001300
#11312:00001300000000000000000000000013
#11317:00000000000000130000000000000000
#11310:41
#11417:13000013000000000000000000000000
#11412:00001300000000130000000000000000
#11416:00000000001300000000000000000000
#1141b:0000001300000000
#11512:13000000001300000000001300000000
#11517:1300130000130000
#1151b:00001300000000130000000000000013
#11516:0013000013000013
#11712:23000000000000000000130000000013
#11717:00000000000000000000001300000000
#1171b:23000000000000130000000000001300
#11716:0013000000000000
#11817:13000000001300000000000000000000
#11812:0000001300000000
#1181b:00001300000000130000000000000000
#11816:00000013000000000000000000001300
#11912:13000000000000131300001300000000
#11917:13000000000000001300130000000013
#11914:0013000000000013
#11919:0013000000000000
#11916:00130000
#1191b:00000000131300000000000000000000
#11612:13000000000013000000001300000000
#1161b:0013000000130000
#11616:00000013000000001300000000001300
#11617:00000000001300000000000013000000
#00118:16
#00112:13
#00113:00130000
#00114:0013
#00115:00000013
#0011c:0032323232323232
#00216:13
#00215:00130000
#00214:0013
#00213:00000013
#0021c:3232323232323232
#00312:1632323232323232
#0031a:00130000
#00319:0013
#00318:00000013
#00417:13
#00418:00130000
#00419:0013
#0041a:00000013
#00412:3232323232323232
#00518:16
#00515:00130000
#00514:0013
#00513:00000013
#0051c:0032323232323232
#00612:13
#00613:00130000
#00614:0013
#00615:00000013
#0061c:3232323232323232
#00712:1632323232323232
#00718:00130000
#00719:0013
#0071a:00000013
#0081b:13
#0081a:00130000
#00819:0013
#00818:00000013
#00812:3232323232323232
#03212:00000000000000000000000000130013
#03213:00000000000000000013001300000000
#03214:00000000001300130000000000000000
#03215:00130013000000000000000000000000
#03218:0000000000001313
#03219:0000000013130000
#0321a:0000131300000000
#0321b:1313000000000000
#0731b:2313001313000013
#07316:2313000013001313
#07312:00130000
#07317:0000000000130000
#0741b:0013000013000013
#07417:0000130000130000
#07414:0000001300000000
#07412:1300130000131300
#07416:0000000013000013
#07517:1313000013001313
#07512:0013001313000013
#0751b:00130000
#07516:0000000000130000
#07612:0013000013000000
#07616:0000130000130000
#07617:0013
#0761b:1300130000130000
#07619:0000001300000000
#07712:1313
#07716:0013001300130013
#07717:00131313
#0771b:0013000000000013
#06912:0013000013000013
#06916:0000001300001300
#06917:13
#07017:00130013
#07019:0000001300130000
#0701b:0000000013000013
#07016:0013000013000013
#07012:00130013
#07218:0013000000000000
#07219:00130000
#0721a:0000001300000000
#0721b:0013
#07217:13
#07213:0013000000000000
#07214:00130000
#07215:0000001300000000
#07216:0013
#0651b:2313000000001313
#06517:0000001313000000
#06516:2313000000000013
#06512:0013
#06510:41
#06617:0013130000000000
#06614:0000001300000000
#06612:0000130000130000
#06616:0013
#0661b:0000000013000013
#06615:00000013
#06717:1313000000000013
#06712:0013000000001313
#06716:0000001313000000
#0671b:0013
#06816:0013130000130000
#06819:0000001300000000
#0681b:0000130000130000
#06817:0013
#06812:0013
#0711b:1300001300001300
#07117:0000130000130000
#07816:0013001300130013
#0781b:0000000000130013
#07817:13131300
#07812:00130000
#03116:00000014000000000014000000000000
#03112:2400000000142400
#0311a:2400142400000000
#0141b:0013
#01412:00000000000000000013000000000000
#01419:0000000000130000
#01414:00000000000000000000001300000000
#01417:00000013
#01416:14
#0141a:00240000
#01718:00000000131300000000130000000000
#0171b:0013
#01712:2400000000130000
#0171a:24
#01710:41
#0091b:1313
#00915:0013001300001300
#00918:0000130000130013
#00912:0013
#01816:0013000000000000
#0181b:00000000131300001300000000000000
#01812:00000013
#01817:0000000000000013
#01912:13130000130000000000130000000000
#01917:0013130000130000
#01916:0000000013000013
#0191b:1300000000000013
#02018:0000000000131313
#02015:00000000000000000000001300130013
#02012:0013131300000000
#02017:00130000000013000000000000000000
#02212:00000000131300000000000000000000
#0221b:00000013
#02216:0000000013000013
#02217:0013000000000000
#02312:1313001300000013
#0231b:13001313
#02316:00000000000000000013000000000000
#02317:00000013000000000000000000000013
#02416:00001313000013000000000000000000
#02417:00001212
#02412:0013
#0241b:00000013
#02617:0013000000000000
#02612:00000000131300001300000000000000
#0261b:00000013
#02616:0000000000000013
#0271b:13130000130000000000130000000000
#02716:0013130000130000
#02717:0000000013000013
#02712:1300000000000013
#02815:0000000000131313
#02818:00000000000000000000001300130013
#0281b:0013131300000000
#02816:00130000000013000000000000000000
#02916:00001400140000001400140000000014
#0291a:0000002400001400
#02912:24000024
#03012:0013131300000000
#03018:0000000000001313
#03015:00000000000000000000130000130000
#0301b:0013
#0521b:0000001300130000
#05219:23000013
#05214:23000013
#05212:0023000013000013
#05217:0023000000000013
#05216:0000001300000000
#04915:00001300000000130000000000000000
#04918:00000013000013000000000000000000
#0491b:0013
#04912:00000000000000000013000000001300
#04919:0000000000130000
#04914:00000000000000000000001300000000
#04910:41
#05018:00001300000000130000000000000000
#05015:00000013000013000000000000000000
#05012:0013
#0501b:13000000000000000013000000001300
#05014:0000000000130000
#05019:00000000000000000000001300000000
#05112:13000000000000000000001300000000
#05117:00130000000000000000000013000000
#05114:00001300000000000013000000000000
#05119:00000013000000000000130000000000
#0511b:0000001313000023
#05116:00000000000000130000000000002300
#05317:13
#05312:00130000000013000000000000000000
#05319:0013000000000000
#05314:00000013000000000000130000000000
#0531b:00000000000000130013000000001300
#05316:0013
#05318:00000000000000000000001300000000
#05412:13000000000013000000000000000013
#0541b:00000000000000130000000000001300
#0551b:13000000000000000000001300001300
#05516:00130000000000000000000000000000
#05519:00001300000000000013000000000000
#05514:00000013000000000000130000000000
#05512:0000001313000000
#05517:00000000000000130000000000000000
#0481b:1300131300000000
#04816:00000000001300130000000000000000
#04819:0000000013130000
#04814:00000000000000000013001300000000
#04817:0000000000001313
#04812:13000000000000000000000000130013
#0571b:1313000000000000
#05715:00130013000000000000000000000000
#05718:0000131300000000
#05712:00000000001300130000000000000000
#05716:0000000000130000
#05717:0000000000000013
#05812:13001300000000000000001300000000
#05818:00130013000000000000000000000000
#05815:0000131300000000
#0581b:00000000001300130000000000000013
#05817:0000000000130000
#05816:0000000000000013
#05912:13000000000000000013000000002300
#0591b:00130000000000001300000013000000
#05915:00001300000000130000001300000000
#05918:00000013000013000000130000000000
#05917:0000000000000023
#0601b:0023000000130000
#06018:00000013
#06015:0000000000000013
#06017:0000001300000000
#06012:0000001300000000
#06016:0023000000000000
#06019:23
#06014:23
#05616:1324
#0561a:24
#05618:00240000
#05614:00000024
#0341b:1300130000130000
#03419:00000013
#03412:1300131300000013
#03414:00000013
#03417:0000000000000013
#03418:0013000000000000
#03512:1300130013000013
#0351b:1300000000130000
#03516:0000001300130000
#03514:00000013
#0331b:0013000013000000
#03312:0000001300130000
#03316:0000000000000013
#03317:1300000000130000
#03315:00130000
#03310:41
#09316:00000014000000000014000000000014
#09312:2400142400000000
#0931a:2400000000142400
#12815:13
#09412:0014000000001400
#09414:0000001400000000
#09416:00000000000000000000141400000000
#0941a:00000014000000000000000014000000
#09418:00000000000000140000000000000000
#09413:00140000
#09415:0014
#09419:00000000001400000000000000000000
#09417:00000000000000000014000000000000
#04212:0000000000131313
#04216:0013000000000000
#0421b:23
#04219:00230000
#04217:00000000000000002300002300002300
#04112:1300000013130013
#0411b:23000000230000002300002300002300
#04512:1300000013000013
#04516:0013000000130000
#04514:00000013
#0451b:23000000230000002300002300002300
#04616:0000001300000000
#04612:00000000000000001300001300001300
#0461b:23
#04619:00230000
#04617:00000000000000002300002300002300
#10916:00120000
#10919:0000001300000013
#10912:24002412
#1091b:1300000000130000
#10917:0013000013000000
#11014:0000001300000013
#1101c:00000012
#11018:00120000
#11012:1300000000130000
#11016:0013000013000000
#1101a:2424
#1121b:1313
#11216:0013000000130000
#11212:00130013
#11217:0000001300000013
#11218:00330033000000000033003300000000
#11215:00000000003300330000000000330033
#11119:0000001300000000
#1111b:0013000013000000
#11117:13
#11112:24242424
#11116:0000000000240024
#09712:1313
#09714:0013001300000013
#09716:0000130000130000
#0971a:24242424
#0971f:21
#09816:1313001300000024
#09812:00130013
#0981a:24242424
#0991b:1313
#09919:0013000000000000
#09917:0000130000000013
#09912:24242424
#09910:41
#10019:0013
#1001b:0000130000130000
#10017:0013000000000000
#10012:2400240024002424
#10016:00000000000000000000000000240000
#10112:0000001313000000
#10116:0000130000000013
#1011a:24242424
#10217:0000001313000000
#1021b:1300000000000013
#10212:24242424
#10216:0000000000000024
#10316:1300001300000000
#10314:0000000000130000
#10312:0000000000000013
#1031a:24242424
#1051b:1313
#10519:0013001300000013
#10517:0000130000130000
#10512:24242424
#10617:1313001300000000
#1061b:00130013
#10618:00000000000000000000000000240024
#10614:0000000000000024
#10612:24242424
#10712:1313
#10714:0013000000000000
#10716:0000130000000013
#1071a:24242424
#10816:0000001300000000
#10812:0013
#10818:00000000000000000000002400240024
#10814:0000000000242424
#1081a:24242400
#0431b:0000001300000013
#04319:0013
#04317:1300000000130000
#04312:23000000230000002300002300002300
#0441b:0013000000130013
#04419:00130000
#04417:0000001300000000
#04412:23
#04414:00230000
#04416:00000000000000002300002300002300
#04717:0000001300000000
#0471b:13
#04712:23232300
#04714:00000000000000000000002300000000
#04716:0000000000000023
#07919:00000013
#07917:1300130013000013
#07916:0013001300130000
#07914:00000013
#07912:1300000000000013
#0791b:0000001300000000
#03812:1300130000130000
#03814:00000013
#0381b:1300131300000013
#03819:00000013
#03816:0000000000000013
#03815:0013000000000000
#03712:0013000013000000
#0371b:1300001300130000
#03716:1300000000130000
#03718:00130000
#03717:0000000000000013
#03612:00000000130013000000001300000000
#0361b:1313000013000013
#03616:1300000013000013
#03617:0000130000131300
#09214:00130013
#0921b:23000000000000130013000000000000
#09215:0013000000000013
#09213:0000001300130000
#09219:00000013000000000000000000130000
#0921a:00000000001300000000001300000000
#09218:00130000000000000000000000000013
#09212:2313
#08919:00130000
#0891b:2313
#08917:0013000000001300
#08916:0000001300000000
#08915:0000000000130000
#08914:0000000000000013
#08912:2313
#09014:00130000
#09016:0013000000001300
#09017:0000001300000000
#09018:0000000000130000
#09019:0000000000000013
#0901b:2313
#09012:2313
#0911b:23131313
#09116:0013000000130000
#09117:0000001300000013
#09112:23131313
#09516:00000014000000000014000000000000
#0951a:2400142400000000
#09512:2400000000142400
#09617:22000012
#09616:00240000
#09614:0028
#0211b:2313
#02118:00000000131300000000000000000000
#02116:0000000000000013
#02117:0000000000130000
#02112:2300000000130000
#0251b:0000000000130000
#02515:00000000131300000000130000000000
#02512:2413
#0251a:24
#01012:1300001313000000
#0101b:1300000013000013
#01018:0013000000001300
#01015:0000130000130000
#0121b:13131300
#01215:00001300000000000013001300130013
#01212:13131300
#01218:0000001300131313
#01112:13131300
#0111b:13001313
#01118:0000130000130013
#01115:0013001300001300
#04015:0000000000001313
#04018:00000000000000000000000000130013
#04012:0013000000130000
#0401b:13131300
#03917:0000131300000000
#03916:1300000000131300
#0391b:13000013
#03912:0000001300000000
#12117:0000000000130000
#12112:23000000000000000000001300001300
#1211b:00001300000000000000000000000013
#12116:00000000000000130000000000000000
#12216:13000013000000000000000000000000
#1221b:00001300000000130000000000000000
#12217:00000000001300000000000000000000
#12212:0000001300000000
#1231b:13000000001300000000001300000000
#12316:1300130000130000
#12312:00001300000000130000000000000013
#12317:0013000013000013
#1241b:13000000000013000000001300000000
#12412:0013000000130000
#12417:00000013000000001300000000001300
#12416:00000000001300000000000013000000
#06417:22
#06416:00240000
#06414:0028
#01617:22
#01616:00240000
#01614:0028
#01512:2400242400000000
#0151a:2400000000242400
#0131a:2400242400000000
#01312:2400000000242400
#1201a:2424240000242400
#12012:2400242424000000
#12016:00000000000000240000002400003400
#12019:0000000000000000000000000000000000000000000000000034000000000000
#12018:00000000000000000000000000340000
#12017:0000000000000000000000000000000000000000000000000000003400000000
#12015:0000000000000000000000000000000000000000000000000000000000343434
#0615b:6343
#06152:3353
#06157:00230000
#06156:00000023
#06252:3354
#0625a:6444
#06256:00240024
#06352:3435
#0635a:00440000
#06358:00000046
#0875c:62
#08752:52
#08755:0063
#08758:0053
#0855c:62
#08557:0052
#08652:52
#08657:00000000000000000062000000000000
#08458:22
#08456:22
#0885b:63
#08852:53
#08858:0000002400000000
#08854:0000002400000000
#1175b:00000000000000630000000000000000
#00158:56
#00352:66
#00558:56
#00752:66
#07356:0063000033000063
#0735b:0043000063000043
#07352:00230000
#07357:0000000000230000
#07552:0033000053000033
#07557:0053000043000053
#0755b:00230000
#07556:0000000000230000
#07452:23000053
#07456:0000000000000023
#0745b:0063
#07457:0000000000230000
#0765b:2300000000630000
#0655b:0043000000000043
#06556:0063000000000063
#06552:0053
#06557:0043
#0665b:0063
#06655:00000063
#06752:0033000000000033
#06757:0053000000000053
#0675b:0063
#06756:0033
#06856:0000000000630000
#0725b:0013
#07256:0013
#0315a:4400005400004400
#03152:6400003400003400
#03156:00000024000000000024000000000000
#01752:3400000000530000
#0175a:44
#01756:0000000000000013
#0255a:44
#02552:34
#02557:0000000000000013
#0255b:0000000000630000
#02457:00001212
#05256:0000006300000000
#05252:0023
#04852:53
#05656:63
#06052:0000005300000000
#0195b:1300000000000063
#01957:00530000
#01956:0000000000000013
#01952:00130000
#02057:00230000000013000000000000000000
#02052:0000005300000000
#0185b:0063
#02256:0063
#02756:00630000
#02752:1300000000000053
#02757:0000000000000013
#0275b:00130000
#02652:0053
#0285b:0000006300000000
#02856:00230000000013000000000000000000
#0235b:6300004300006300
#02352:3300005300003300
#02356:00000000000000000023000000000000
#02357:00000023000000000000000000000023
#0295a:0000001400006400
#02956:00000000000000000000000000000024
#02952:14000014
#11457:00000053000000000000000000000000
#11856:00000063000000000000000000000000
#1285c:0000000000000012
#12852:0000000000000012
#10956:00120000
#10952:00000012
#1095b:6300000000230000
#10957:0023000053000000
#1125b:6363
#11256:0023000000230000
#11252:00530053
#11257:0000002300000023
#1105c:00000012
#11058:00120000
#11052:5300000000230000
#11056:0023000063000000
#11157:53
#1115b:0023000000000000
#1055b:0063
#10557:0000000000230000
#09752:0053
#09756:0000000000230000
#09856:0063006300000000
#09852:00230000
#10657:0053005300000000
#1065b:00230000
#09957:00530000
#0995b:0063
#10152:0053
#1025b:63
#10257:0053
#10356:63
#10756:0000630000000063
#10752:0053
#04256:0063000000000000
#04152:5300000000000023
#04556:0023000000000000
#04552:5300000000000023
#04757:0000002300000000
#0475b:63
#04357:53
#08052:0013
#08057:0013
#0805b:23
#07856:0000002300130000
#0785b:0000000000130000
#07857:23
#07852:00530000
#0775b:0063000000000063
#07757:00230000
#07752:0053
#07756:0000000000230000
#07957:0000000023000053
#07952:53
#07956:0023000000000000
#0795b:0000006300000000
#03656:2323
#03657:00230000
#0365b:0063000000000000
#03652:0000005300000000
#03552:0000000000000053
#0355b:0000000000630000
#0345b:00230000
#03458:0053000000000000
#03452:2300005300000000
#03356:0000000000000063
#0335b:0023000000000000
#03357:5300000000530000
#03352:0000002300000000
#03355:00630000
#03752:0023000000000000
#03756:6300000000630000
#0375b:0000002300000000
#03758:00530000
#03757:0000000000000053
#0385b:2300006300000000
#03852:00230000
#03855:0063000000000000
#0935a:6400004400006400
#09352:3400005400003400
#09356:00000024000000000024000000000024
#09556:00000024000000000024000000000000
#09552:5400003400003400
#0955a:4400006400004400
#09657:00000012
#0215b:0000000000000013
#02156:0000000000000063
#02157:0000000000530000
#01552:1400005400000000
#0155a:64000014
#01556:0000001400001400
#01456:24
#0135a:1400006400000000
#01352:54000054
#01356:0000001400001400
#03957:0000005300000000
#03956:63000063
#04052:0023000000000000
#10057:0053000000000000
#1005b:00230000
#11357:00000000000000530000000000000000
#1135b:13
#11556:0063
#11652:0000005300000000
#11656:0023
#11657:00000053
#12256:00000063000000000000000000000000
#12156:00000000000000630000000000000000
#12152:13
#12357:0053
#1245b:0000006300000000
#12457:0023
#12456:00000063
#001380:16
#0013c0:0032323232323232
#0023c0:3232323232323232
#0033c0:22
#003321:1632323232323232
#004321:3232323232323232
#005321:22
#005380:16
#0053c0:0032323232323232
#0063c0:3232323232323232
#0073c0:22
#007321:1632323232323232
#008321:3232323232323232
#009321:22
#013321:14
#013361:0000002400000000
#0133a0:0000001400000000
#013360:00000024
#013321:00000014
#014361:54
#014321:00240000
#0153a1:14
#015361:0000002400000000
#015320:0000001400000000
#015360:00000024
#017350:0000001323000000
#017320:0000000000130000
#017360:0000000000000023
#0173b1:0000000000000013
#0183b1:0023000000000000
#018361:0000001323000000
#0183b0:0013
#018370:00000023
#019370:00130000
#0193b0:0023
#0193b0:0000000000000013
#020370:00530000000000000000000000000000
#0203b0:00230000
#020320:0000001300000000
#020350:0000000000230000
#021320:0000001323000000
#021370:0000000000130000
#0213b0:0000000000000023
#021361:0000000000000013
#022321:0023000000000000
#0223b1:0000001323000000
#022360:0013
#022320:00000023
#0233b0:1300002300000000
#023370:00000053000000000000000000000000
#023321:0000001300002300
#023361:00000000000000000053000000000000
#0233b0:00000013
#023370:00000000000000000000000000000053
#0243b0:0023000000000000
#0243b0:0000132300000000
#025380:0000001323000000
#0253b0:0000000000130000
#025370:0000000000000023
#025321:0000000000000013
#026321:0023000000000000
#026371:0000001323000000
#026320:0013
#026360:00000023
#027360:00130000
#027320:0023
#027320:0000000000000013
#028360:00530000000000000000000000000000
#028320:00230000
#0283b0:0000001300000000
#028380:0000000000230000
#0293a0:00000014
#029360:00000000000000000000000000000054
#0303a0:0024000000000000
#031320:1400002400000000
#031360:00000054000000000000000000000000
#0313a1:0000001400002400
#031361:00000000000000000054000000000000
#033371:13
#0333b1:0053000000000000
#033381:00230000
#033350:00130000
#033320:0000005300000000
#033360:0023
#033370:0000000000130000
#0333b0:0000000000000023
#033361:0000000000000013
#034321:53
#034351:0023000000000000
#034380:0013000000000000
#0343b0:00530000
#034370:0000002300000000
#034321:0000001300000000
#034361:0000000000230000
#035371:0000130033000023
#0353b1:0000003300330000
#035320:0000000000000013
#036360:53
#036320:0023000000000000
#0363b1:0013002300000000
#036371:00530000
#036320:0000001300230000
#036360:0053
#037360:13
#037320:0053000000000000
#037350:00230000
#037381:00130000
#0373b1:0000005300000000
#037371:0023
#037361:0000000000130000
#037321:0000000000000023
#037370:0000000000000013
#0383b0:53
#038380:0023000000000000
#038351:0013000000000000
#038321:00530000
#038361:0000002300000000
#0383b0:0000001300000000
#038370:0000000000230000
#039360:13
#039320:00230000
#039370:0000001300000000
#0393b0:0000000000230000
#039360:00000013
#040320:0053000000000000
#040360:0023
#041320:13
#041360:00230000
#041320:0000000000000013
#042360:0033000000000000
#042320:0000002300000000
#043370:13
#0433b0:00230000
#045320:13230000
#045360:0053000000000000
#045320:0000000000000013
#046360:0023000000000000
#0473b0:13000000000000000000002300000000
#047370:0000005300000000
#048320:13
#048360:00230000
#0493b0:1323000000000000
#049320:0000132300000000
#049370:0000000000001323
#050320:1323000000000000
#0503b0:0000132300000000
#050360:0000000000001323
#051360:0000132300000000
#052360:0000001300230000
#052320:0053
#0533b0:0000132300000000
#053320:0000000000001323
#054380:1323000000000000
#054351:0013230000000000
#0543b0:0000132300000000
#054350:0000000013230000
#054381:0000000000132300
#054320:0000000000001323
#055370:0000132300000000
#055360:0000000000001323
#056360:13
#056320:0023
#0563b0:0000000000001323
#056321:0000000000000013
#057321:23
#0573b1:0000000013230000
#057321:0000000000001323
#058321:0000000013230000
#0583b1:0000000000001323
#059321:0000132300000000
#060321:0000001300000000
#060361:0000000000230000
#0613b1:1323
#061371:00530000
#061320:0013
#061360:00000053
#062320:23
#0623a1:1424
#062361:00540000
#062320:0014
#062360:00000054
#063320:24
#065360:0013000000000000
#065320:0000002300000000
#065320:0013
#065360:00000023
#065360:0000000000000013
#066320:0023000000000000
#0663b0:0013
#066380:00000023
#066351:00000013
#067321:23
#067371:0013000000000000
#0673b1:0000002300000000
#0673b1:0013
#067371:00000023
#067371:0000000000000013
#0683b1:0023000000000000
#068361:0000000000130000
#069321:23
#069371:0013000000000000
#0693b1:0000002300000000
#069371:0013
#0693b1:00000023
#069371:0000000000000013
#0703b1:0023000000000000
#071361:13
#071321:00230000
#071361:0000001300000000
#071321:0000000000230000
#071361:00000013
#072321:23
#073361:0013002300000000
#073321:00530000
#0733b1:00001323
#073371:0000000000530000
#073361:0000000000000013
#074321:53
#074361:0023000000000000
#0743b1:00001323
#074371:0000000000530000
#074320:00000013
#074360:0000000000000053
#075320:23
#075370:0013002300000000
#0753b0:00530000
#075320:00001323
#075360:0000000000530000
#075370:0000000000000013
#0763b0:53
#076370:0023000000000000
#0763b0:0000000000130000
#077370:23
#0773b0:0013002300000000
#077370:00530000
#077320:00001323
#077360:0000000000530000
#0773b0:0000000000000013
#078370:53
#0783b0:0023000000000000
#078320:00132300
#078360:0000005300000000
#079320:13230000
#079360:0053000000000000
#0793b0:0000001300230000
#079370:0053
#079370:0000000000000013
#0803b0:53
#080370:0023000000000000
#081380:16
#084380:52
#0853c0:52
#085370:0052
#0863c0:52
#0873c0:32
#087380:00333333
#0883b0:33
#088380:0033333434342600
#081321:16
#084361:52
#085321:52
#086321:52
#086371:00000000000000000052000000000000
#087321:32
#087351:00333333
#088321:33000026
#088351:0033330000000000
#088341:0000003434340000
#0933a1:1400002400000000
#093361:00000054000000000000000000000000
#093320:0000001400002400
#093360:00000000000000000054000000000000
#0933a1:00000014
#093361:00000000000000000000000000000054
#0943a1:0024000000000000
#095321:1400002400000000
#095361:00000054000000000000000000000000
#0953a0:0000001400002400
#095360:00000000000000000054000000000000
#097320:00001323
#097360:0000000000530000
#098360:0013003300000000
#098320:0000530000230000
#099370:00130023
#0993b0:0033
#100370:0013002300000000
#1003b0:00530000
#100320:0000000000000014
#100330:0000000000000000000000000000000000000000000000000000000000340000
#100340:00000000000000000000000000000034
#100350:0000000000000000000000000000000000000000000000000000000000000034
#101360:24
#101320:0013
#101360:00000023
#1023b0:13
#102370:00230000
#102370:0013
#1023b0:00000023
#103360:13
#103320:00230000
#1053b0:00001323
#105370:0000000000530000
#106370:0013003300000000
#1063b0:0000530000230000
#107360:00130023
#107320:0033
#107360:0000000000000013
#108320:0023000000000000
#1093b0:13230000
#109370:0053000000000000
#109370:00001323
#1093b0:0000000000530000
#110320:13230000
#110360:0053000000000000
#110360:00001323
#110320:0000000000530000
#111370:13230000
#1113b0:0053000000000000
#111360:0000000000140000
#111370:0000000000000000000000000000000000000000003400000000000000000000
#111380:00000000000000000000003400000000
#111390:0000000000000000000000000000000000000000000000340000000000000000
#1113a0:00000024
#111360:0000000000000014
#111350:0000000000000000000000000000000000000000000000000000000000340000
#111340:00000000000000000000000000000034
#111330:0000000000000000000000000000000000000000000000000000000000000034
#112320:24
#1123b1:13230000
#112381:00330033000000000000000000000000
#112361:0033000000000000
#112320:00132300
#112350:00000000003300330000000000000000
#112370:0000003300000000
#1123b1:00001323
#112381:00000000000000000033003300000000
#112361:0000000000330000
#112320:00000013
#112350:00000000000000000000000000330033
#112370:0000000000000033
#113320:23
#113370:00000013002300000000000000000000
#113321:00000000001300230000000000000000
#113370:00000000000000130000000000000000
#1133b0:0000000000230000
#113360:00000013
#113350:0000000000000000000000000000000000000000000000000033000000000000
#113340:00000000000000000000000000330000
#113330:0000000000000000000000000000000000000000000000000000003300000000
#113320:0000000000000023
#114370:00000013000000000000000000000000
#1143b0:00000000002300000000000000000000
#114370:0000000013000023
#1143b0:00000000000000000000003300000000
#114361:00000000000000000000001300000000
#114321:0000000000000023
#115361:0013
#115321:0000000000230000
#115371:00000013
#115381:0000000000000000000000000000000000000000000000000033000000000000
#115391:00000000000000000000000000330000
#1153a1:0000000000000000000000000000000000000000000000000000003300000000
#1153b1:0000000000000023
#116321:0000001300230000
#116361:0053
#116371:00000013
#1163b1:0000000000000023
#1173b1:00000013002300000000000000000000
#117320:00000000001300230000000000000000
#1173b1:00000000000000130000000000000000
#117371:0000000000230000
#117321:00000013
#117331:0000000000000000000000000000000000000000000000000033000000000000
#117341:00000000000000000000000000330000
#117351:0000000000000000000000000000000000000000000000000000003300000000
#117361:0000000000000023
#118361:00000013000000000000000000000000
#118321:00000000002300000000000000000000
#118361:0013
#118321:00000000000000000000002300000000
#118370:00000000000000000000001300000000
#1183b0:0000000000000023
#1193b0:00000013
#1193a0:0000000000000000000000000000000000000000000000000033000000000000
#119390:00000000000000000000000000330000
#119380:0000000000000000000000000000000000000000000000000000003300000000
#119370:0000000000000023
#120320:1424000000000000
#1203a0:0000142400000000
#120320:0000000014240000
#1203a0:00000014
#120390:0000000000000000000000000000000000000000000000000034000000000000
#120380:00000000000000000000000000340000
#120370:0000000000000000000000000000000000000000000000000000003400000000
#120360:0000000000000034
#120350:0000000000000000000000000000000000000000000000000000000000343434
#121350:24
#121360:00000013002300000000000000000000
#1213b1:00000000001300230000000000000000
#121360:00000000000000130000000000000000
#121320:0000000000230000
#121370:00000013
#121380:0000000000000000000000000000000000000000000000000033000000000000
#121390:00000000000000000000000000330000
#1213a0:0000000000000000000000000000000000000000000000000000003300000000
#1213b0:0000000000000023
#122360:00000013000000000000000000000000
#122320:00000000002300000000000000000000
#122360:0000000013000023
#122320:00000000000000000000003300000000
#122371:00000000000000000000001300000000
#1223b1:0000000000000023
#123371:0013
#1233b1:0000000000230000
#123361:00000013
#123351:0000000000000000000000000000000000000000000000000033000000000000
#123341:00000000000000000000000000330000
#123331:0000000000000000000000000000000000000000000000000000003300000000
#123321:0000000000000023
#1243b1:0000001300230000
#124371:0053
#124361:00000013
#124321:0000000000000023
#1273b1:13
#127371:0023000000000000
#127361:00000000001300000000000000000000
#127321:00000000000000230000000000000000
#127321:0013
#127361:0000000000230000
#1283a1:0014000000000000
#128361:00000054002400000000000000000000
#128320:00000000001400000000000000000000
#128360:0000005424000000
#1283c1:0000000012005222
#128381:00000000000000000052003200000000
#128360:00000000000000000000001200000000
#128320:0000000000005222
