This file was generated by Ched 2.6.4.0.
#TITLE ""
#ARTIST ""
#DESIGNER ""
#DIFFICULTY 0
#PLAYLEVEL
#SONGID ""
#WAVE ""
#WAVEOFFSET 0
#JACKET ""
#REQUEST "ticks_per_beat 480"
#00002: 4
#BPM01: 190
#BPM02: 200
#BPM03: 210
#BPM04: 220
#BPM05: 230
#BPM06: 170
#BPM07: 180
#BPM08: 185
#BPM09: 195
#00008: 01
#08708: 01
#06108: 0002
#08908: 02
#06208: 0304
#06308: 05
#08108: 06
#08508: 07
#08608: 08
#08808: 09
#TIL00: ""
#HISPEED 00
#MEASUREHS 00
#06118:00000013
#06115:00130000
#06112:0023
#0611b:23
#06216:00140014
#0621b:23
#06212:0024
#06315:0014000000000000
#06314:0000001400000000
#06313:0000000000140000
#0631a:24
#06319:00250000
#06318:0026
#06317:00000027
#00112:13
#00115:00130013
#00118:0013
#00212:13
#00215:00130013
#00218:0000000013000013
#06918:0013000000000013
#06915:0000001300000000
#0691b:0013
#06912:00000013
#07015:00130013
#07018:0000001300130000
#0701b:0013
#07012:0013000000000013
#06515:0013000000000013
#06518:0000001300000000
#0651b:23000013
#06512:0013
#06510:41
#0661b:0013000000000013
#06618:0000001300130000
#06615:00130013
#06612:0013
#06812:0000001300000000
#0681b:00130000
#06818:0013
#06815:0013000000130000
#0711b:1300001300000000
#07115:00130000
#07112:0000000000130000
#07118:00000013
#07218:0013000000000000
#07214:00130000
#0721a:0000001300000000
#07216:0013
#07212:13
#0091b:13
#00915:0013001300001300
#00918:0000130000130013
#00912:0013
#01812:0013000000000000
#01815:00000013
#01818:0000000000000013
#0181b:00000000003300000000000000000000
#01918:0013
#01915:0000000000130000
#0191b:0000000000000013
#01912:00330000000000000000000000000000
#02018:0000130000130000
#02012:0000001300000000
#02015:0013000000000000
#0201b:00000000000000000000003333333333
#02318:0013000000000013
#02312:13000013
#02315:0013
#0231b:0000001300000000
#02418:00000013000000000000000000000000
#02412:0013
#0241b:0000001300001300
#02415:0013130000000000
#02618:00000013
#02615:00000000003300000000000000001300
#0261b:0013000000000000
#02918:0013000000130000
#02915:00131300
#0291b:0000002300000000
#02912:23000023
#0301b:0013000000130000
#03015:0000130000001313
#03018:00000000000013000000000000130000
#03012:0013
#0521b:00000013
#05218:0000000000000013
#05212:0000001300000000
#0521a:0024000000000000
#05216:24
#04915:0013001300000000
#0491b:0013
#04918:0000130000130000
#04910:41
#05018:0013001300000000
#05012:0013
#05015:0000130000130000
#0501b:13
#05112:1300000000000024
#05118:0013000000001300
#0511b:0013
#05115:0000000000130000
#05315:1313
#05312:0013000000000000
#0531b:0000000000130000
#05418:1300001300001300
#0541b:0013000000000000
#05415:0000130013000013
#05412:0000000000130000
#0551b:13
#05515:0013000000000000
#05512:0013
#05518:0000000000130000
#05712:13
#05715:0013000000000000
#05718:00130000
#0571b:0000001300000000
#05912:13
#05915:0013000013001300
#0591b:0000001300000000
#05918:0000130000130000
#0591a:0000000000000024
#06018:0000001300001300
#06015:0000000000000013
#06012:0024001300000000
#06016:24
#03415:0013000000000013
#03418:00000013
#0341b:0013000000130000
#03512:13130000
#03518:0000001300000000
#03515:0013
#0351b:0000000000130000
#0481b:13
#04812:13000000003333333333333333333333
#04815:00130000
#04512:0013
#04518:1300000000130000
#04515:00000013
#0451b:0000000000000013
#04612:0000001300000014
#0461a:0014
#04616:00000000000000000000001400000000
#10916:00140014
#10912:2424
#1091a:2424
#1111b:0000131300000013
#11112:2400131300130000
#11118:0000000000130000
#11115:0000000000000013
#1111a:24
#11016:00140014
#1101a:2424
#11012:2424
#09712:1313
#09715:0013001300000000
#09718:0000130000000013
#0971b:23
#0971f:21
#09812:0000001300000000
#09815:0013000000000000
#0981b:0013000000000000
#09818:0000001300000000
#0991b:13
#09918:0013000000000013
#09915:00130000
#09912:2313
#09910:41
#10015:0013000000000013
#1001b:0000001300000000
#10112:0000001313000000
#1011b:2300000000000013
#10215:0000001313000000
#10218:0000000000000013
#1021b:13
#1031a:0000001400000000
#10316:0000000000140000
#10312:0000000000000014
#10315:13
#04718:0000001300000000
#0471b:13
#03812:0013000000130000
#03818:0013000000001300
#03815:0000000000000013
#08918:0000130000130013
#08915:0013
#08912:2300000000000013
#0891b:23
#09018:0000001300001300
#09015:0013000000130013
#0901b:0013000000000000
#09012:0000001300000000
#0911b:2300130013130013
#09118:0013000000000000
#09115:0000001300000013
#09112:2300130013130000
#0211b:0013
#02118:00000000001300000000000000000000
#02115:0000131300130000
#02515:0000131300130000
#02518:00000000001300000000000000000000
#0251b:0013
#0251a:24
#02512:24
#01712:2413
#01715:00000000001300000000000000000000
#01718:0000131300130000
#0171a:24
#01710:41
#01417:14
#01412:0013
#01418:0013
#01415:00000013
#0141b:00000013
#0111b:1313
#01118:00130013
#01112:0000001300000013
#01115:0013000000130000
#03915:0000001300000000
#0391b:13000013
#04018:0013000000000000
#11615:0013001300130000
#1161b:00130013
#11618:0000000013000013
#11612:00130013
#11918:0013000000130000
#11915:00131300
#11912:13
#1191b:00000000000013000000003333333333
#0031b:13
#00318:00130013
#00315:0013
#0041b:13
#00418:00130013
#00415:0000000013000013
#00512:13
#00515:00130013
#00518:0013
#00612:13
#00615:00130013
#00618:0000000013000013
#0071b:13
#00718:00130000
#00715:0013
#00712:00000013
#0081b:13
#00812:00130000
#00815:0013
#00818:00000013
#0101b:13
#01015:0013001300001300
#01018:0000130000130013
#01012:0013
#0121b:1313000000000000
#01215:0000131300000000
#01218:0000000013130000
#01212:0000000000001313
#02218:0013000000000013
#02215:00000000003300000000000013000000
#0221b:0000000000130000
#02715:0013
#02718:0000000000130000
#02712:0000000000000013
#0271b:00330000000000000000000000000000
#02815:0000130000130000
#0281b:0000001300000000
#02818:0013000000000000
#02812:00000000000000000000003333333333
#03114:00140000
#03112:0000000000140000
#0311a:24
#03116:00000024
#03118:0000002400000000
#03212:14
#03216:00343434343434343434343400000000
#0331b:13
#03318:0000130000000013
#03312:0000000000000013
#03315:0000000000130000
#03310:41
#03615:0013000000000000
#03612:0000001300000000
#03718:13
#0371b:0000130000000013
#03715:0000000000130013
#04218:0013000000000013
#04215:00000013
#04212:0013000000130000
#0431b:13130000
#04315:0000001300000000
#04318:0013
#04312:0000000000130000
#04112:13
#04115:0000130000000013
#0411b:0000000000000013
#04118:0000000000130000
#04418:0013000000000000
#04415:0000130000000013
#0441b:0000001300000000
#0581b:13
#05818:0013000000000000
#05815:00130000
#05812:0000001300000000
#06718:0013000000000013
#06715:0000001300000000
#06712:13000013
#0671b:0013
#07318:0013000000000013
#07315:0000001300000000
#07312:23000013
#0731b:0013
#07412:0013000000000013
#07415:0000001300130000
#07418:00130013
#0741b:0013
#0761b:0000001300000000
#07612:00130000
#07615:0013
#07618:0013000000130000
#07515:0013000000000013
#07518:0000001300000000
#0751b:13000013
#07512:0013
#07715:0013000000000013
#07718:0000001300000000
#07712:0013
#0771b:00000013
#07818:00130013
#07815:0000001300130000
#07812:0013
#0781b:0013000000000013
#07912:1300001300000000
#07918:00130000
#0791b:0000000000130013
#07915:00000013
#08015:0013001300000000
#08018:00131300
#0811b:13
#08112:13
#08418:13
#08415:13
#0851b:13
#08512:13
#0851f:11
#08618:13
#08615:13
#0871b:13
#08712:13
#08818:13
#08815:13
#0881b:0033333333330000
#08812:0033333333330000
#09218:0013000000000014
#09212:0013000000000000
#09314:00140000
#09318:0000000000140000
#09312:24000024
#0931a:0000002400000000
#0941b:0013
#09415:0013
#09418:00000013
#09412:00000013
#09518:0000001300000000
#09515:0000001300000000
#0951b:23
#09512:23
#09613:00240014
#09619:2424
#10518:0013001300000000
#10515:0000130000000013
#1051b:0013
#1061b:0000001300000000
#10618:0013000000000000
#10612:0013000000000000
#10615:0000001300000000
#10712:13
#10715:0013000000000013
#10718:00130000
#1071b:2313
#10818:0013000013000000
#10812:0000001300000000
#10815:0000000000130000
#1081b:00000013
#11212:00000000001300000000000000000000
#11218:00000000001300000000000000000000
#11315:00130013
#11318:0013001300130000
#1131b:2313
#11312:23000000000000001300000000333333
#11310:41
#11518:00001300000000000000133333003333
#1151b:13000000000000000000000000130000
#11512:1300001300000000
#11515:00131300
#11712:00130013
#11718:0013000000130000
#1171b:0000001300000000
#11715:23000000000000001300000000333333
#12718:00001300000013000000003333333333
#1271b:0000130000130000
#12715:00000000000000001300003333333333
#12712:0000000000130000
#12815:0013000013000013
#12818:00000000001300000000001300000000
#1281b:0013000013000013
#12812:00000000001300000000001300000000
#11415:0013000000000000
#11418:00130000
#1141b:0000001300000000
#11818:0013000000000000
#1181b:00130000
#11812:00130000
#11815:0000001300000000
#12418:0013001300130000
#12412:00130013
#12415:0000000013000013
#1241b:00130013
#12118:00130013
#12115:0013001300130000
#12112:0013
#1211b:00000000000000001300000000333333
#12315:00001300000000000000133333003333
#12312:13000000000000000000000000130000
#1231b:1300001300000000
#12318:00131300
#12218:0013000000000000
#12215:00130000
#12212:0000001300000000
#0561a:24
#05618:00240000
#05616:0024
#05614:00000024
#0131a:24000024
#01314:00240000
#01312:0000000000240000
#01318:0000002400000000
#12012:00242424
#12016:0024002400000000
#1201a:00242424
#01512:24
#0151a:24
#01619:2424
#01613:00240000
#06413:2424
#06419:00240000
#1041a:24
#1251a:00343434003434340000000000000000
#12512:00000000000000000034343400343434
#1261a:00343434003434340000000000000000
#12612:00000000000000000034343400343434
#06855:0000000000630000
#07256:0013
#05252:0000006300000000
#06058:0000005300000000
#06052:0000005300000000
#0295b:0000001300000000
#02952:13000013
#10956:00140014
#11056:00140014
#09752:0053
#09955:00530000
#09952:0063
#10152:0053
#1025b:63
#10255:0053
#10355:63
#0195b:0000000000000013
#01955:00130000
#02052:0000001300000000
#02058:0000000000530000
#04558:53
#0455b:0000000000000023
#04758:0000002300000000
#0475b:63
#02552:1400000000000013
#02555:0000000000630000
#0255a:14
#02152:0000000000000013
#02155:0000000000530000
#0175b:0000000000000013
#01758:0000000000530000
#0175a:14
#01752:14
#01457:24
#0135a:14000064
#01358:0000001400000000
#03955:0000005300000000
#0395b:63000063
#04058:0023000000000000
#01552:54
#0155a:64
#02352:13000013
#0235b:0000001300000000
#02452:0013
#0245b:00000013
#02752:0000000000000013
#02758:00130000
#0285b:0000001300000000
#02855:0000000000630000
#03158:0000001400000000
#03156:00000014
#0315a:14
#03252:54
#0335b:53
#03358:0000530000000063
#03352:0000000000000063
#0345b:0063000000000000
#03455:0063000000000000
#0355b:0000000000530000
#03655:0053000000000000
#03652:0000005300000000
#0375b:0000530000000053
#03758:53
#03755:0000000000000053
#03852:0053000000000000
#03858:0053000000000000
#04352:0000000000630000
#04152:63
#04155:0000630000000053
#0415b:0000000000000053
#04252:0053000000000000
#04258:0053000000000000
#0445b:0000005300000000
#04855:00530000
#06359:00150000
#06358:0016
#06357:00000017
#0635a:14
#0615b:13
#06152:0013
#0625b:13
#06252:0014
#06555:0013000000000013
#06552:0013
#06758:0013000000000013
#0675b:0013
#07358:0013000000000013
#0735b:0013
#07658:0000000000530000
#07555:0013000000000013
#07552:0013
#08058:0013
#0815b:53
#08152:63
#08458:53
#08455:63
#0855b:53
#08552:63
#08658:53
#08655:63
#0875b:53
#08752:63
#08858:53
#08855:63
#09352:14000054
#0935a:0000001400000000
#0955b:53
#09558:0000002300000000
#09555:0000002300000000
#09552:63
#09653:00000014
#09858:0000005300000000
#09852:0000005300000000
#1005b:0000005300000000
#1065b:0000006300000000
#10655:0000006300000000
#1055b:0063
#10758:00630000
#1075b:0053
#1115b:0000000000000053
#11155:0000000000000053
#11258:00000000002300000000000000000000
#11252:00000000002300000000000000000000
#11355:00000053
#11558:0000000000530000
#1155b:00000000000000000000000000230000
#11752:00000053
#11958:0000000000530000
#1275b:0000000000530000
#12752:0000000000630000
#12855:0000000000000013
#1285b:0000000000000013
#12158:00000063
#12355:0000000000630000
#12352:00000000000000000000000000230000
#0133a0:00000014
#014370:54
#0143a0:00240000
#015320:14
#015340:00000024
#0153a1:14
#015381:00000024
#017381:0000000000130000
#0173b1:0000000000000023
#0183b1:00000000133300000000000000000000
#018381:0000003323000000
#019321:13330000000000000000000000000000
#019351:0033230000000000
#020381:0000000000130000
#0203b1:00000000000000000000003333333333
#0213b1:23
#021351:0000000000130000
#021321:0000000000000023
#022351:00000000133300000000000000000000
#022321:0000003323000000
#025351:0000000000130000
#025321:0000000000000023
#026321:00130000
#026351:00000000003333002300000000000000
#0273b1:13330000000000000000000000000000
#027381:0033230000000000
#028351:0000000000130000
#028321:00000000000000000000003333333333
#029321:23
#032321:14
#032361:00343434343434343434343424000000
#0333b1:1323
#033381:00330000
#033381:0000000000000013
#0343b1:0033000000000000
#034381:0000002300000000
#033320:0000000000000013
#034350:0033000000000000
#034320:0000002300000000
#0353b0:0000000000130000
#035380:0000000000000023
#036350:0013000000230000
#036320:0000003300000000
#037380:1323
#0373b0:00330000
#037350:0000000000000013
#038320:0033000000000000
#038350:0000002300000000
#0373b1:0000000000000013
#038381:0033000000000000
#0383b1:0000002300000000
#0393b1:13
#039381:00230000
#039351:0000001300000000
#039321:0000000000230000
#0393b1:00000013
#040381:0053000000000000
#0403b1:0023
#041321:1323
#041351:00330000
#041351:0000000000000013
#042321:0033000000000000
#042351:0000002300000000
#0413b0:0000000000000013
#042380:0033000000000000
#0423b0:0000002300000000
#043320:0000000000130000
#043350:0000000000000023
#0443b0:0000001300000000
#044380:0000000000230000
#045380:13
#0453b0:00230000
#0453b0:0000000000000013
#046380:0023000000000000
#0473b0:13000023
#047380:0000005300000000
#048350:00130000
#048320:00000000003333333333333333333333
#049320:23
#049350:0000000000001323
#050380:0000000000001323
#051350:0000132300000000
#052320:0000001300000000
#052350:0000000000230000
#053380:0000132300000000
#053320:0000000000001323
#055380:0000132300000000
#055350:0000000000001323
#057320:0000000013230000
#057381:0000000013230000
#057351:0000000000001323
#0573b0:0000000000001323
#0583b0:0000000013230000
#058351:0000000013230000
#058381:0000000000001323
#058320:0000000000001323
#060380:0000001300000000
#0603b0:0000000000230000
#060321:0000001300000000
#060351:0000000000230000
#068351:0000000000130000
#069321:23
#076381:0000000000130000
#0773b1:23
#0813b1:13
#084381:33
#0853b1:33
#086381:33
#0873b1:33
#088381:33
#0883b1:0033333333332300
#081320:13
#084350:33
#085320:33
#086350:33
#087320:33
#088350:33
#088320:0033333333332300
#0923b0:0000001300230000
#092351:0000001300230000
#093321:00000014
#094361:00240000
#0953b1:13000023
#095381:0000005300000000
#095320:13000023
#095350:0000005300000000
#097320:0013
#097350:00000023
#098380:0000001300000000
#0983b0:00000023
#098321:0000001300000000
#098351:00000023
#099351:00130023
#099321:0033
#1003b1:0000001300000000
#100381:00000023
#101321:0013
#101351:00000023
#1023b1:13
#102381:00230000
#102351:0013
#102321:00000023
#103351:13
#103321:00230000
#1043a1:1434
#104391:003400000034003400000034
#104381:003434003434
#104371:00340034
#1053a1:24
#1053b1:0013
#105381:00000023
#106351:0000001300000000
#106321:00000023
#1063b0:0000001300000000
#106380:00000023
#107380:00130023
#1073b0:0033
#1113b0:0000000000000013
#112380:00000000005300000000000000000000
#1123b0:00000023
#111351:0000000000000013
#112321:00000000005300000000000000000000
#112351:00000023
#113351:00000013
#113321:00000000000000000000000000333333
#114321:23
#114321:0000000013000023
#114351:00000000000000000000003300000000
#115381:00000000000000000000133333003333
#1153b1:00000000000000000000000000330000
#116381:23
#117321:00000013
#117351:00000000000000000000000000333333
#118351:23
#118381:0000000013000023
#1183b1:00000000000000000000003300000000
#119381:0000000000130000
#1193b1:00000000000000000000003333333333
#1203b1:23
#1203a1:00000000000000000000000014343434
#1213a1:24
#120320:00000000000000000000000014343434
#121320:24
#121380:00000013
#1213b0:00000000000000000000000000333333
#1223b0:23
#1223b0:0000000013000023
#122380:00000000000000000000003300000000
#123350:00000000000000000000133333003333
#123320:00000000000000000000000000330000
#124350:23
#1253a0:14343434003434342400000000000000
#125360:00340000
#125321:00000000000000001434343400343434
#125361:00000034
#126321:24
#1263a0:14343434003434342400000000000000
#126360:00340000
#126321:00000000000000001434343400343434
#126361:00000034
#127321:24
#1273b1:0000000000130000
#127381:00000000000000000000003333333333
#128381:23
#127320:0000000000130000
#127350:00000000000000000000003333333333
#128350:23
