This file was generated by Ched 2.6.4.0.
#TITLE ""
#ARTIST ""
#DESIGNER ""
#DIFFICULTY 0
#PLAYLEVEL
#SONGID ""
#WAVE ""
#WAVEOFFSET 0
#JACKET ""
#REQUEST "ticks_per_beat 480"
#00002: 4
#BPM01: 190
#BPM02: 200
#BPM03: 210
#BPM04: 220
#BPM05: 230
#BPM06: 170
#BPM07: 180
#BPM08: 185
#BPM09: 195
#00008: 01
#08708: 01
#06108: 0002
#08908: 02
#06208: 0304
#06308: 05
#08108: 06
#08508: 07
#08608: 08
#08808: 09
#TIL00: ""
#HISPEED 00
#MEASUREHS 00
#0801a:00000012
#08018:00000013001300000000130000120000
#08016:0000000000000012
#08014:00000000000000000000000000000012
#08012:13131300
#08015:00001300000013000013000000000000
#0801b:00130000000000130000001300000000
#12715:00001300130000000000001300130013
#12718:00001300130000000000001300130013
#1271b:13000000001300130000130013001300
#12712:13000000001300130000130013001300
#11315:00001300000000000000130000130013
#11318:2600000000001300000000000000130000000000000013000013001300000000
#1131b:00000000001300000000000013001300
#11312:23131313
#11310:41
#11418:00001300001300000000001300000000
#1141b:1313001300001313
#11415:00000013000000130000001300001300
#11412:13131313
#11518:00001300000000130000130000130013
#11515:1300000000000000130000000000000000000000000013000013001300000000
#11512:0013000000001313
#1151b:13131313
#11715:00000000000000130000130013001300
#11718:0000000013000000000000000000000000000000000013000013001300000000
#1171b:23000013001300000000000000130013
#11712:23131313
#11818:13001300000000130000000013000000
#1181b:00000000001300000000000000001300
#11815:00000013000013000000001300001300
#11812:13131313
#11612:13000000001300000000130013000000
#11615:00001300000000000000001300001300
#11618:00000013000013000000001300001300
#1161b:13131313
#03118:00000012000000000012000000000000
#03116:00000012000000000012000000000000
#0311c:2200122200000000
#0311a:2200122200000000
#03112:2200000000122200
#03114:2200000000122200
#0191b:0000000013130000
#01912:0000160000130000
#01916:0000000000001318
#01918:1613000013130000
#01915:00130000000000000000000000000000
#02413:00001212
#0241b:00001212
#02417:00001212
#02412:1313130000000000
#02415:13000013000012000000120000000000
#02419:0000001200120000
#03012:0012121200131300
#0301b:0000000000131300
#03017:0012
#03014:00130000000000000000000000000000
#03018:00000000000000000000000000130000
#03015:0000000000000013
#0521b:0000001300130013
#05215:2323000000001300
#05212:0023001300001300
#05218:2300001300130013
#05216:0013
#04912:00001300130000001300001300000000
#04915:00000013000013000000130013000000
#04918:00000000000000130013000000000000
#0491b:0000000013000013
#04910:41
#05312:13000000000000001300001300000000
#05315:00130000000013000000130013000000
#05318:00001300130000130013000000001300
#0531b:00000013000000001300000000000000
#0541b:0000131300000000
#05415:13000000000000130000130000000000
#05412:0000000000001313
#05418:00001300000000001300000000000013
#0481b:0000131300000000
#04817:00000000001300130000000000000000
#0481a:0000000013130000
#04816:13000000000000000013001300000000
#04819:0000000000001313
#04815:00000000000000000000000000130013
#0291b:1300002300131300
#02918:0013000013130000
#02915:0013130013000000
#02912:2300131300002300
#09412:1300001300001300
#09415:00130000001300130000001300130000
#0941b:13000013000000000013000000000013
#09418:0013130013130013
#11118:1300000013000000000000001300000013000000000023000000000000230000
#11115:0000000013000000130000001300000000000000002300001300000000002300
#1111b:2300000000000000000000000000000023000000000000230000000023000000
#11112:0000000000000000230000000000000000000000230000002300000000000023
#09617:22002212
#09615:00220000
#09613:0022
#09619:00220000
#0961b:0022
#04015:00130013001300000013000012000000
#04019:22000000220000002200000000120015
#04012:1313130000130015
#04017:0000000000000000000000000000000000000000000022000012000022000000
#0401b:13000000130000130000000000000000
#04018:0000001300000000
#02117:0000000000130000
#0211b:23000000001300000000000013000000
#02112:13000000001300000000000000001600
#02115:0000131300000000
#02118:00130000
#08416:12000000000000000014000000000000
#08418:12
#08516:0014
#0851c:0012
#0851a:0012
#0851f:11
#08616:00000000000000000014000000000000
#08612:00000000000000000012000000000000
#08614:00000000000000000012000000000000
#01412:00231313
#0141b:00000000000000130000001300130000
#01415:13000000000013000013000000001300
#01418:00000000001300000000130000000013
#07615:22000000000022002200000000130000
#07618:0000000000000013
#0761b:00000000000000000000000000000013
#07612:13131313
#07617:00000022000000000000000000000000
#0691b:1313130000000000
#06915:00130013000000130000000000000000
#06919:00000000001300000000000000000000
#06917:0000001300000000
#06918:0000000013131300
#06912:00000000000000000013001300000013
#06916:00000000000000000000000000130000
#06914:0000000000000013
#0701b:13001300000000130000000000130000
#07018:00130013000013000000000013000000
#07015:00000000130000000013001300001300
#07012:00000000001300001300130000000013
#0711b:13000013000000001300001300000000
#07115:00130000130013000000130000130000
#07118:00001300001300000013000000001300
#07112:00000000000000130000000013000013
#0721b:1300130013000013
#07212:00130000000000130000001300000013
#07218:00001300000013000013000013000000
#07215:00000013001300000000130000130000
#07712:1313130000000000
#07718:00130013000000130000000000000000
#07714:00000000001300000000000000000000
#07716:0000001300000000
#07715:0000000013131300
#0771b:00000000000000000013001300000013
#07717:00000000000000000000000000130000
#07719:0000000000000013
#07812:13001300000000130000000000130000
#07815:00130013000013000000000013000000
#07818:00000000130000000013001300001300
#0781b:00000000001300001300130000000013
#07912:13000013000000001300001300000000
#07918:00130000130013000000130000130000
#07915:00001300001300000013000000001300
#0791b:00000000000000130000000013000013
#0951b:1300002300130000
#09516:0013000000000000
#09512:2300131300002600
#09517:0013
#09515:23130000
#09518:0000002300132600
#01516:0013000000000000
#01517:0013
#0151b:2300002300002300
#01512:2300002300002300
#01518:0000230000230000
#01515:0000230000230000
#01515:0000000000230000
#05612:13000026
#0561b:0013
#05618:2600000000001313
#05615:0000000000000013
#05616:0013260000000000
#05617:0000000000130000
#05614:0026
#05512:13000013000013001300000000001300
#0551b:13000000000013001300001300001300
#05518:00130000000000130000130013000000
#05515:00001300130000000013000000000000
#05712:13000000000000000000001300000000
#05715:00130000000000000000130000000013
#05718:0013131300000013
#0571b:13000013001300130000000013000000
#0581b:13000000000000000000001300000000
#05818:00130000000000000000130000000013
#05815:0013131300000013
#05812:13000013001300130000000013000000
#12618:0000000013000000000013000000000000120000001200001300000013000000
#12615:00130000000013000000000000130013
#1261a:0000000012120000
#12616:00000000000000000012001200000000
#12614:0000000000000000000000000000000000000012000000120000000000000000
#12612:13000000000000130000000000000000
#1261b:13000013130000000000000000000000
#1281b:1313000013000000
#12812:13000000001300000000001300000000
#12816:000000000000000000000000000000000000000000000000000000000000000000000000000000000000000000000000000000000000000000000000000000000000000000000000000000000000000000000000000000000000000000000000000000000000000000000000000000000000000000000000000000000000000000000000000000000000000000000000000000000000000000000000000000000000000000000000000000000000000000000000000000000000000000000000000000000000000000000000000000000000000000000000000000000000000000000000000000000000000000000000000000000000000000000000000000000000000000000000000000000000000000000000000000000000000000000000000000000000000000000000000000000000000000000000000000000000000000000000000000000000000000000000000000000000000000000000000000000000000000000000000000000000000000000000000000000000000000000000000000000000000000000000000000000000000000000000000000000000000000000000000000000000000000000000000000000000000000000000000000000000000000000000000000000000000000000000000000000000000000000000000000000000000000000000000000000000000000000000000000000000000000000000000000000000000000000000000000000000000000000000000000000000000000000000000000000000000000000000000000000000000000000000000000000000000000000000000000000000000000000000000000000000000000000000000000000000000000000000000000000000000000000000000000000000000000000000000000000000000000000000000000000000000000000000000000000000000000000000000000000000000000000000000000000000000000000000000000000000000000000000000000000000000000000000000000000000000000000000000000000000000000000000000000000000000000000000000000000000000000000000000000000000000000000000000000000000000000000000000000000000000000000000000000000000000000000000000000000000000000000000000000000000000000000000000000000000000000000000000000000000000000000000000000000000000000000000000000000000000000000000000000000000000000000000000000000000000000000000000000000000000000000000000000000000000000000000000000000000000000000000000000000000000000000000000000000000000000000000000000000000000000000000000000000000000000000000000000000000000000000000000000000000000000000000000000000000000000000000000000000000000000000000000000000000000000000000000000000000000000000000000000000000000000000000000000000000000000000000000000000000000000000000000000000000000000000000000000000000000000000000000000000000000000000000000000000000000000000000000000000000000000000000000000000000000000000000000000000000000000000000000000000000000000000000000000000000000000000000000000000000000000000000000000000000000000000000000000000000000000000000000000000000000000000000000000000000000000000000000000000000000000000000000000000000000000000000000000000000000000000000000000000000000000000000000000000000000000000000000000000000000000000000000000000000000000000000000000000000000000000000000000000000000000000000000000000000000000000000000000000000000000000000000000000000000000000000000000000000000000141414140000000000000000000000000000000000000000000000000000000000000000000000000000000000000000000000000000000000000000000000000000000000000000000000000000000000000000000000000000000000000000000000000000000000000000000000000000000000000000000000000000000000000000000000000000000000000000000000000000000000000000000000000000000000000000000000000000000000000000000000000000000000000000000000000000000000000000000000000000000000000000000000000000000000000000000000000000000000000000000000000000000000000000000000000000000000000000000000000000000000000000000000000000000000000000000000000000000000000000000000000000000000000000000000000000000000000000000000000000000000000000000000000000000000000000000000000000000000000000000000000000000000000000000000000000000000000000000000000000000000000000000000000000000000000000000000000000000000000000000000000000000000000000000000000000000000000000000000000000000000000000000000000000000000000000000000000000000000000000000000
#12118:00001300000000000000130000130013
#12115:0000000000001300000000000000130000000000000013000013001300000000
#12112:26000000001300000000000013001300
#1211b:00131313
#12215:00001300001300000000001300000000
#12212:1313001300001313
#12218:00000013000000130000001300001300
#1221b:13131313
#12315:00001300000000130000130000130013
#12318:1300000000000000130000000000000000000000000013000013001300000000
#1231b:0013000000001313
#12312:13131313
#1241b:13000000001300000000130013000000
#12418:00001300000000000000001300001300
#12415:00000013000013000000001300001300
#12412:13131313
#10315:1300130013001313
#10318:00001300000000000000000000130013
#1031b:00130013000000000000000000000000
#10317:0000001300000000
#1031a:00000000001300130000000000000000
#10316:0000000000130000
#10319:00000000000000000013001300000000
#10312:23232323
#10312:23
#10412:000000000000000000261412
#10415:000000260000261412000000
#10419:000000000012000000000000
#10417:001400
#1041c:001200000000
#1041a:001400000000000000000000
#10418:26
#11218:1300130013131313
#11215:00130013001300130000001300000013
#11212:0013001300000000
#1121b:23000000000000000013000000130000
#0511b:1313130000000023
#05118:00130013000000000000000000002300
#05117:0000001200000000
#05115:00000000000000120013001300000000
#05112:0000000013131300
#05119:00000000001200000000000000000000
#05912:1313130000000023
#05915:00130013001200000000000000002300
#05917:0000001200000000
#05919:00000000000000120000000000000000
#0591b:0000000013131300
#05918:00000000000000000013001300000000
#00814:000000120000000000000000000012000000120000000000
#00816:000012000000000000000000001200000000000000001200
#00818:000012000000000000000000000000000000000000000000120000000000000000120000000000000000000000000000
#00812:0000000000120000
#0081a:120000000012
#00815:001200
#00817:000000000000001200000000000000000000000000000000
#00819:00120000
#00813:0000001200000000
#00114:1212121212121200
#0011c:12
#00117:00000000000000120000000000000000
#00112:0000000000000012
#0021a:1212121212121212
#00217:00000000000000120000000000000000
#00314:0012121212121200
#00312:0000000000000012
#00317:12
#0031c:00000000000000120000000000000000
#0051a:0012121212121200
#0051c:0000000000000012
#00512:12
#00517:00000000000000120000000000000000
#00614:1212121212121212
#00617:00000000000000120000000000000000
#0041a:1212120000000000
#00414:0000000012121212
#0041c:0000001200000000
#00417:00001200000000000000001200000000
#0071a:0012120000000012
#00714:0000000012120000
#00712:12000012
#0071c:0000001200000000
#03919:13000000130013000000002200002200
#03916:0000001200001300
#0391b:0000000000131300
#03914:0000000000000013
#03912:12
#0391c:22222200
#04117:2200220022001312
#0411b:0013000000000000
#04112:0000001300130000
#0411a:00000013
#04115:00000000000000000000002200002200
#03716:0000000000130000
#03712:00000013
#0371b:0013001300001300
#03717:22222200
#03719:00000000000000000000002200002200
#0381b:0013001300000000
#03812:0000000000000013
#03815:00000013
#03818:0000000000131300
#03819:22222200
#0381c:00000000000000000000002200002200
#0361b:0000000000001313
#03612:0013001300131300
#03615:22222200
#03617:00000000000000000000002200002200
#03512:22222213
#0351b:00000013
#03517:0000000000130000
#03514:0000001300000000
#03515:00000000000000000000002200002200
#0341b:0000000000000013
#03418:00000013
#03415:2200220022131300
#03412:00001300000013000000002200002200
#03312:0013001300001300
#0331b:00000013
#03317:2200220022130000
#03315:00000000000000000000002200002200
#03310:41
#04212:00001300000013000000002200002200
#04217:0013
#0421b:0000000000130013
#04215:22222213
#04218:00000013
#04314:0000001313000000
#04317:0000000000130000
#04312:22222213
#0431b:00000013
#04315:00000000000000000000002200002200
#04412:0013001300130000
#04419:00000013
#04414:00000013
#04415:22222200
#04417:00000000000000000000002200002200
#0451b:0000001300130000
#04513:00000013
#04516:00000013
#04512:0013000000000000
#04517:2200220022000012
#04519:00000000000000000000002200002200
#0461b:0013001300000000
#04616:0000000013131300
#04613:00000013
#04619:2200220022000013
#0461c:00000000000000000000002200002200
#04719:13000000130000000013002200002200
#04715:00130013001300130000000000000000
#04712:1313131313000000
#04716:00000000000000000000130000130000
#0471b:00000000000000000000000013000013
#04713:00000013
#0471c:22222200
#01819:00000000001300000000000000001300
#01816:00000013
#01814:0000000000130000
#01817:0013000013000000
#0181b:0013131300000000
#01718:00000000001300000000000000000000
#0171b:0000130000130000
#01712:2400131300000016
#01717:00000013
#01715:00000000001300000000000000000000
#0171a:24
#01710:41
#02614:00000000001300000000000000001300
#02617:00000013
#02619:0000000000130000
#02616:0013000013000000
#02612:0013131300000000
#02512:2400130000130000
#02516:00000013
#02515:00000000001300000000000000000000
#0251b:0000131300000000
#02518:00000000001300000000000000001600
#0251a:24
#0271b:0000000000130000
#02717:00000013
#02712:1600000013130018
#02715:0013000013130000
#02718:00130000160000000000000000000000
#02812:0014001600000000
#0281a:0000000000140000
#02815:00000000160000000000130000130000
#02817:00000000000000000000000013000013
#02819:0000000000000013
#02813:00000000000000000000001300000000
#02818:0016000000000000
#02816:000000000000000000000000000000000000000000000000000000000000000000000000000000000000000000000000000000000000000000000000000000000000000000000000000000000000000000000000000000000000000000000000000000000000000000000000000000000000000000000000000000000000000000000000000000000000000000000000000000000000000000000000000000000000000000000000000000000000000000000000000000000000000000000000000000000000000000000000000000000000000000000000000000000000000000000000000000000000000000000000000000000000000000000000000000000000000000000000000000000000000000000000000000000000000000000000000000000000000000000000000000000000000000000000000000000000000000000000000000000000000000000000000000000000000000000000000000000000000000000000000000000000000000000000000000000000000000000000000000000000000000000000000000000000000000000000000000000000000000000000000000000000000000000000000000000000000000000000000000000000000000000000000000000000000000000000000000000000000000000000000000000000000000000000000000000000000000000000000000000000000000000000000000000000000000000000000000000000000000000000000000000000000000000000000000000000000000000000000000000000000000000000000000000000000000000000000000000000000000000000000000000000000000000000000000000000000000000000000000000000000000000000000000000000000000000000000000000000000000000000000000000000000000000000000000000000000000000000000000000000000000000000000000000000000000000000000000000000000000000000001800000000000000000000000000000000000000000000000000000000000000000000000000000000000000000000000000000000000000000000000000000000000000000000000000000000000000000000000000000000000000000000000000000000000000000000000000000000000000000000000000000000000000000000000000000000000000000000000000000000000000000000000000000000000000000000000000000000000000000000000000000000000000000000000000000000000000000000000000000000000000000000000000000000000000000000000000000000000000000000000000000000000000000000000000000000000000000000000000000000000000000000000000000000000000000000000000000000000000000000000000000000000000000000000000000000000000000000000000000000000000000000000000000000000000000000000000000000000000000000000000000000000000000000000000000000000000000000000000000000000000000000000000000000000000000000000000000000000000000000000000000000000000000000000000000000000000000000000000000000000000000000000000000000000000000000000000000000000000000000000000000000000000000000000000000000000000000000000000000000000000000000000000000000000000000000000000000000000000000000000000000000000000000000000000000000000000000000000000000000000000000000000000000000000000000000000000000000000000000000000000000000000000000000000000000000000000000000000000000000000000000000000000000000000000000000000000000000000000000000000000000000000000000000000000000000000000000000000000000000000000000000000000000000000000000000000000000000000000000000000000000000000000000000000000000000000000000000000000000000000000000000000000000000000000000000000000000000000000000000000000000000000000000000000000000000000000000000000000000000000000000000000000000000000000000000000000000000000000000000000000000000000000000000000000000000000000000000000000000000000000000000000000000000000000000000000000000000000000000000000000000000000000000000000000000000000000000000000000000000000000000000000000000000000000000000000000000000000000000000000000000000000000000000000000000000000000000000000000000000000000000000000000000000000000000000000000000000000000000000000000000000000000000000000000000000000000000000000000000000000000000000000000000000000000000000000000000000000000000000000000000000000000000000000000000000000000000000000000000000000000000000000000000000000000000000000000000000000000000000000000000000000000000000000000000000000000000000000000000000000000000000000000000000000000000000000000000000000000000000
#02215:0013
#02212:00001400141414000000000013000000
#02219:0000000000000013
#02213:0000000000130000
#02216:0000000000000013
#02315:0013000000000000
#02318:1600000013161600
#02312:0000161600000013
#0681b:13131313
#06812:00000000000000000000000000000013
#06815:2200000000000013
#06818:00000000000000000000000000130000
#06819:0000002222000000
#06817:00000022000000000000000000000000
#06512:23131313
#06517:0000000000000022
#06515:22002222
#06519:00220000
#06510:41
#06612:13131313
#06617:00000000000000000000220000000022
#06619:22000022
#06615:0000220022000022
#0671b:13131313
#06719:2200000022222200
#06715:00000000220000000022002200000000
#06717:0000000000000022
#0731b:23131313
#07317:00000000220022000000002200002200
#07319:0000000022222200
#07512:13131313
#07515:2200000022220022
#07517:00000022000022000000002200220022
#0741b:13131313
#07417:00002200220022000000002200220022
#07419:2200000022220000
#07415:0000000000002222
#01012:0000121200001212
#0101c:1212000012120000
#01017:000000000000000000000000000000000000000000000000000000000000000000000000000000000000000000000000000000000000000000000000000000000000000000000000000000000000000000000000000000000000000000000000000000000000000000000000000000000000000000000000000000000000000000000000000000000000000000000000000000000000000000000000000000000000000000000000000000000000000000000000000000000000000000000000000000000000000000000000000000000000000000000000000000000000000000000000000000000000000000000000000000000000000000000000000000000000000000000000000000000000000000000000000000000000000000000000000000000000000000000000000000000000000000000000000000000000000000000000000000000000000000000000000000000000000000000000000000000000000000000000000000000000000000000000000000000000000000000000000000000000000000000000000000000000000000000000000000000000000000000000000000000000000000000000000000000000000000000000000000000000000000000000000000000000000000000000000000000000000000000000000000000000000000000000000000000000000000000000000000000000000000000000000000000000000000000000000000000000000000000000000000000000000000000000000000000000000000000000000000000000000000000000000000000000000000000000000000000000000000000000000000000000000000000000000000000000000000000000000000000000000000000000000000000000000000000000000000000000000000000000000000000000000000000000000000000000000000000000000000000000000000000000000000000000000000000000000000000000000000000000000000000000000000000000000000000000000000000000000000000000000000000000000000000000000000000000000000000000000000000000000000000000000000000000000000000000000000000000000000000000000000000000000000000000000000000000000000000000000000000000000000000000000000000000000000000000000000000000000000000000000000000000000000000000000000000000000000000000000000000000000000000000000000000000000000000000000000000000000000000000000000000000000000000000000000000000000000000000000000000000000000000000000000000000000000000000000000000000000000000000000000000000000000000000000000000000000000000000000000000000000000000000000000000000000000000000000000000000000000000000000000000000000000000000000000000000000000000000000000000000000000000000000000000000000000000000000000000000000000000000000000000000000000000000000000000000000000000000000000000000000000000000000000000000000000000000000000000000000000000000000000000000000000000000000000000000000000000000000000000000000000000000000000000000000000000000000000000000000000000000000000000000000000000000000000000000000000000000000000000000000000000000000000000000000000000000000000000000000000000000000000000000000000000000000000000000000000000000000000000000000000000000000000000000000000000000000000000000000000000000000000000000000000000000000000000000000000000000000000000000000000000000000000000000000000000000000000000000000000000000000000000000000000000000000000000000000000000000000000000000000000000000000000000000000000000000000000000000000000000000000000000000000000000000000000000000000000000000000000000000000000000000000000000000000000000000000000000000000000000000000000000000000000000000000000000000000000000000000000000000000000000000000000000000000000000000000000000000000000000000000000000000000000000000000000000000000000000000000000000000000000000000000000000000000000000000000000000000000000000000000000000000000000000000000000000000000000000000000000000000000000000000000000000000000000000000000000000000000000000000000000000000000000000000000000000000000000000000000000000000000000000000000000000000000000000000000000000000000000000000000000000000000000000000000000000000000000000000000000000000001400000000000000000000000000000000000000000000000000000000000000000000000000000000000000000000000000000000000000000000000000000000000000000000000000000000000000000000000000000000000000000000000000000000000000000000000000000000000000000000
#01015:00000000000000000000000000000014
#01018:0000000000000014
#01014:0000000000000014
#00916:0000121200001212
#00918:1212000012120000
#0091a:0000000000000014
#00912:0000000000000014
#00915:00000000000000000000000000000014
#00917:000000000000000000000000000000000000000000000000000000000000000000000000000000000000000000000000000000000000000000000000000000000000000000000000000000000000000000000000000000000000000000000000000000000000000000000000000000000000000000000000000000000000000000000000000000000000000000000000000000000000000000000000000000000000000000000000000000000000000000000000000000000000000000000000000000000000000000000000000000000000000000000000000000000000000000000000000000000000000000000000000000000000000000000000000000000000000000000000000000000000000000000000000000000000000000000000000000000000000000000000000000000000000000000000000000000000000000000000000000000000000000000000000000000000000000000000000000000000000000000000000000000000000000000000000000000000000000000000000000000000000000000000000000000000000000000000000000000000000000000000000000000000000000000000000000000000000000000000000000000000000000000000000000000000000000000000000000000000000000000000000000000000000000000000000000000000000000000000000000000000000000000000000000000000000000000000000000000000000000000000000000000000000000000000000000000000000000000000000000000000000000000000000000000000000000000000000000000000000000000000000000000000000000000000000000000000000000000000000000000000000000000000000000000000000000000000000000000000000000000000000000000000000000000000000000000000000000000000000000000000000000000000000000000000000000000000000000000000000000000000000000000000000000000000000000000000000000000000000000000000000000000000000000000000000000000000000000000000000000000000000000000000000000000000000000000000000000000000000000000000000000000000000000000000000000000000000000000000000000000000000000000000000000000000000000000000000000000000000000000000000000000000000000000000000000000000000000000000000000000000000000000000000000000000000000000000000000000000000000000000000000000000000000000000000000000000000000000000000000000000000000000000000000000000000000000000000000000000000000000000000000000000000000000000000000000000000000000000000000000000000000000000000000000000000000000000000000000000000000000000000000000000000000000000000000000000000000000000000000000000000000000000000000000000000000000000000000000000000000000000000000000000000000000000000000000000000000000000000000000000000000000000000000000000000000000000000000000000000000000000000000000000000000000000000000000000000000000000000000000000000000000000000000000000000000000000000000000000000000000000000000000000000000000000000000000000000000000000000000000000000000000000000000000000000000000000000000000000000000000000000000000000000000000000000000000000000000000000000000000000000000000000000000000000000000000000000000000000000000000000000000000000000000000000000000000000000000000000000000000000000000000000000000000000000000000000000000000000000000000000000000000000000000000000000000000000000000000000000000000000000000000000000000000000000000000000000000000000000000000000000000000000000000000000000000000000000000000000000000000000000000000000000000000000000000000000000000000000000000000000000000000000000000000000000000000000000000000000000000000000000000000000000000000000000000000000000000000000000000000000000000000000000000000000000000000000000000000000000000000000000000000000000000000000000000000000000000000000000000000000000000000000000000000000000000000000000000000000000000000000000000000000000000000000000000000000000000000000000000000000000000000000000000000000000000000000000000000000000000000000000000000000000000000000000000000000000000000000000000000000000000000000000000000000000000000000000000000000000000000000001400000000000000000000000000000000000000000000000000000000000000000000000000000000000000000000000000000000000000000000000000000000000000000000000000000000000000000000000000000000000000000000000000000000000000000000000000000000000000000000
#0121b:1212000013131313
#01212:00000000000000000013001300130013
#01213:0000121200000000
#01116:0000121200001212
#01118:1212000012120000
#0111a:0000000000000014
#01112:0000000000000014
#01115:00000000000000000000000000000014
#01117:000000000000000000000000000000000000000000000000000000000000000000000000000000000000000000000000000000000000000000000000000000000000000000000000000000000000000000000000000000000000000000000000000000000000000000000000000000000000000000000000000000000000000000000000000000000000000000000000000000000000000000000000000000000000000000000000000000000000000000000000000000000000000000000000000000000000000000000000000000000000000000000000000000000000000000000000000000000000000000000000000000000000000000000000000000000000000000000000000000000000000000000000000000000000000000000000000000000000000000000000000000000000000000000000000000000000000000000000000000000000000000000000000000000000000000000000000000000000000000000000000000000000000000000000000000000000000000000000000000000000000000000000000000000000000000000000000000000000000000000000000000000000000000000000000000000000000000000000000000000000000000000000000000000000000000000000000000000000000000000000000000000000000000000000000000000000000000000000000000000000000000000000000000000000000000000000000000000000000000000000000000000000000000000000000000000000000000000000000000000000000000000000000000000000000000000000000000000000000000000000000000000000000000000000000000000000000000000000000000000000000000000000000000000000000000000000000000000000000000000000000000000000000000000000000000000000000000000000000000000000000000000000000000000000000000000000000000000000000000000000000000000000000000000000000000000000000000000000000000000000000000000000000000000000000000000000000000000000000000000000000000000000000000000000000000000000000000000000000000000000000000000000000000000000000000000000000000000000000000000000000000000000000000000000000000000000000000000000000000000000000000000000000000000000000000000000000000000000000000000000000000000000000000000000000000000000000000000000000000000000000000000000000000000000000000000000000000000000000000000000000000000000000000000000000000000000000000000000000000000000000000000000000000000000000000000000000000000000000000000000000000000000000000000000000000000000000000000000000000000000000000000000000000000000000000000000000000000000000000000000000000000000000000000000000000000000000000000000000000000000000000000000000000000000000000000000000000000000000000000000000000000000000000000000000000000000000000000000000000000000000000000000000000000000000000000000000000000000000000000000000000000000000000000000000000000000000000000000000000000000000000000000000000000000000000000000000000000000000000000000000000000000000000000000000000000000000000000000000000000000000000000000000000000000000000000000000000000000000000000000000000000000000000000000000000000000000000000000000000000000000000000000000000000000000000000000000000000000000000000000000000000000000000000000000000000000000000000000000000000000000000000000000000000000000000000000000000000000000000000000000000000000000000000000000000000000000000000000000000000000000000000000000000000000000000000000000000000000000000000000000000000000000000000000000000000000000000000000000000000000000000000000000000000000000000000000000000000000000000000000000000000000000000000000000000000000000000000000000000000000000000000000000000000000000000000000000000000000000000000000000000000000000000000000000000000000000000000000000000000000000000000000000000000000000000000000000000000000000000000000000000000000000000000000000000000000000000000000000000000000000000000000000000000000000000000000000000000000000000000000000000000000000000000000000000000000000000000000000000000000000000000000000000000000000000000000000000000000000000000000001400000000000000000000000000000000000000000000000000000000000000000000000000000000000000000000000000000000000000000000000000000000000000000000000000000000000000000000000000000000000000000000000000000000000000000000000000000000000000000000
#01317:0013000000000000
#01316:0013
#01315:23230023
#0131b:2300000000232300
#0131b:0000000000230000
#01312:0000232300000000
#01318:0000002300230000
#08716:0014
#1191b:13131313
#11912:13000000130000000000000000130000
#11915:0000000013000000000000000000130000000000000013000013001300001300
#11918:0013000000131313
#03218:00130013001300000000000000130000
#0321b:1313130013001300
#03215:0000001313131313
#03212:13000000130000130013001300000013
#06015:2300001300130013
#06012:0000001300130013
#06018:2323000000001300
#0601b:0023001300001300
#06017:0013
#06112:14140014
#0611a:00141414
#06116:0000000000140000
#06114:0024
#06118:24
#0621a:00141414
#06212:14140014
#06216:0014000000140000
#06213:0024
#06219:24
#0631b:00130013
#06318:0013131300131300
#06315:0013001313130000
#06312:00241324
#0631a:2424
#1251b:1313
#12519:00000000000000000013000000000013
#12517:0000000000130013
#12515:00000000000000000000001300130000
#12513:00000013
#12512:1313
#12514:00130000000000130000000000000000
#12516:0013001300000000
#12518:00000013001300000000000000000000
#1251a:00130000
#09715:0013000000000000
#09712:00000013000000000000000000000000
#09719:0000000000130000
#09716:00000000000000000000001300000000
#09714:00000000000000130000000000000000
#09717:0000001300000000
#09718:13000000130000001300000013000013
#0971b:2300230023002313
#0971f:21
#09818:0013000000000013
#0981b:00000013000000000000000000000000
#09815:1300130013001323
#09819:00000000000000130000000000000000
#09816:0000001300000000
#09814:0000000000130000
#09817:00000000000000000000001300000000
#09812:23232323
#0991b:13000000230000002300000023000013
#09918:2300130013001313
#09916:0000000000130000
#09919:00000000000000000000001300000000
#09912:0013000000000000
#09915:00000013000000000000000000000000
#09917:00000000000000130000000000000000
#09914:0000001300000000
#09910:41
#1001b:0000000013000000000000000000000000000000000000000000230000000023
#10018:00000013000000000000000000130023
#10015:1300000000000000130000000000000013000000000000001300000000230000
#10016:00000000000000130000000000000000
#10019:0000001300000000
#10017:0000000000130000
#10014:00000000000000000000001300000000
#10012:2300230023002323
#10115:13000013000013001300001300000000
#10118:00001300130000130000000013000013
#10112:23000013000013002300001300000000
#1011b:00001300230000130000000023000013
#1011a:0000000000130000
#10117:0000000000130000
#10113:0000000000000013
#10116:0000000000000013
#08816:0012001214001200
#08818:1200120000120012
#09016:00120012
#0901a:0012000000120000
#09018:1200001200000012
#09014:0012
#08916:0012000000120012
#08914:00000012
#08918:00121200
#0891a:0000001200000000
#0921c:12121212
#09212:00120000001200000012000000120000
#09216:00000012000000120000001200000012
#09218:0012001200120012
#09112:0012000000120000
#0911c:00120012
#09116:0000001200000012
#09118:0012
#10215:13000013000000001300131300001300
#10218:00000000130000130000130013001313
#1021b:00000000230000130000000023000013
#10212:23000013000000002300001300000000
#10214:0000001300000000
#10217:0000001300000000
#10219:0013000000000000
#10216:0013000000000000
#0201a:00001400000000000000001300000000
#02012:000000000000000000000000000000000000000000000000000000000000000000000000000000000000000000000000000000000000000000000000000000000000000000000000000000000000000000000000000000000000000000000000000000000000000000000000000000000000000000000000000000000000000000000000000000000000000000000000000000000000000000000000000000000000000000000000000000000000000000000000000000000000000000000000000000000000000000000000000000000000000000000000000000000000000000000000000000000000000000000000160000000000000000000000000000000000000000000000000000000000000000000000000000000000000000000000000000000000000000000000000000000000000000000000000000000000000000000000000000000000000000000000000000000000000000000000000000000000000000000000000000000000000000000000000000000000000000000000000000000000000000000000000000000000000000000000000000000000000000000000000000000000000000000000000000000000000000000000000000000000000000000000000000000000000000000000000000000000000000000000000000000000000000000000000000000000000000000000000000000000000000000000000000000000000000000000000000000000000000000000000000000000000000000000000000000000000000000000000000000000000000000000000000000000000000000000000000000000000000000000000000000000000000000000000000000000000000000000000000000000000000000000000000000000000000000000000000000000000000000000000000000000000000000000000000000000000000000000000000000000000000000000000000000000000000000000000000000000000000000000001800000000000000000000000000000000000000000000000000000000000000000000000000000000000000000000000000000000000000000000000000000000000000000000000000000000000000000000000000000000000000000000000000000000000000000000000000000000000000000000000000000000000000000000000000000000000000000000000000000000000000000000000000000000000000000000000000000000000000000000000000000000000000000000000000000000000000000000000000000000000000000000000000000000000000000000000000000000000000000000000000000000000000000000000000000000000000000000000000000000000000000000000000000000000000000000000000000000000000000000000000000000000000000000000000000000000000000000000000000000000000000000000000000000000000000000000000000000000000000000000000000000000000000000000000000000000000000000000000000000000000000000000000000000000000000000000000000000000000000000000000000000000000000000000000000000000000000000000000000000000000000000000000000000000000000000000000000000000000000000140000000000000000000000000000000000000000000000000000000000000000000000000000000000000000000000000000000000000000000000000000000000000000000000000000000000000000000000000000000000000000000000000000000000000000000000000000000000000000000000000000000000000000000000000000000000000000000000000000000000000000000000000000000000000000000000000000000000000000000000000000000000000000000000000000000000000000000000000000000000000000000000000000000000000000000000000000000000000000000000000000000000000000000000000000000000000000000000000000000000000000000000000000000000000000000000000000000000000000000000000000000000000000000000000000000000000000000000000000000000000000000000000000000000000000000000000000000000000000000000000000000000000000000000000000000000000000000000000000000000000000000000000000000000000000000000000000000000000000000000000000000000000000000000000000000000000000000000000000000000000000000000000000000000000000000000000000000000000000000000000000000000000000000000000000000000000000000000000000000000000000000000000000000000000000000000000000000000000000000000000000000000000000000000000000000000000000000000000000000000000000000000000000000000000000000000000000000000000000000000000000000000000000000000000000000000000000000000000000000000000000000000000000000000000000000000000000000000000000000000000000000000000000000000000000000000000000000000000000000000000000000000000000000000000000000000000000000000000000000000
#02018:00000000000016000000130000130000
#02016:00000000000000000000000013000013
#02014:0000000000000013
#02015:00160000
#09312:0000000000162600
#09318:0000000000162600
#09319:0000142400000000
#09313:0000142400000000
#0931a:22
#09314:22
#0501b:13001300130000001300001300000000
#05018:00000013000013000000130013000000
#05015:00000000000000130013000000000000
#05012:0000000013000013
#1051a:00001414240000000000000000000000
#10512:24000000000014142400000000000000
#10518:00000000000000000000141424000000
#10514:00000000000000000000000014001414
#10516:00141400
#10616:00001414240014142400141412001200
#10618:14000000000000000000000000120012
#1061a:00000000000000001400000000240024
#10612:0000140000002424
#10614:24
#10716:12001414240014142400000000000000
#10718:00000000000000000000141424000000
#10714:00000000000000000000000014001414
#10712:24140000
#1071a:0014
#1081a:00001414240000000000141400240024
#10812:00000000000014142400000024002400
#10816:0000140014001212
#10818:14000000000000000000000000120012
#10814:24
#10916:1200000000121212
#10912:24121300
#10918:0011111100120012
#10919:00110000
#10917:0011001100000000
#1091c:00000012
#10914:00000012
#1091b:0023
#1101b:13132300
#11012:23121314
#11015:0013001300000000
#11018:0013131300140014
#1101c:00000012
#11014:0000000000140014
#11016:00000014
#01615:00220000
#01613:0022
#01619:00220000
#0161b:0022
#01617:2222
#1201b:2323
#12012:23230023
#12018:0000000000000000230000000000230000000000230000002300000000330000
#12015:00002300000023002300002300330000
#12017:0000000000000033
#12019:00000000000000000000000000000033
#1201a:0000000000000000000000000000000000000000000000000000000000000033
#12016:0000000000000000000000000000000000000000000000000000003300000000
#12014:0000000000000000000000000000000000000000000000000033000000000000
#06415:00220000
#06413:0022
#06419:00220000
#0641b:0022
#06417:2222
#03154:6200003200003200
#03158:00000022000000000022000000000000
#03156:00000022000000000022000000000000
#03152:6200003200003200
#0315a:4200005200004200
#0315c:4200005200004200
#01752:3400000000000066
#0175a:44
#0175b:0000000000530043
#01757:00000023
#0295b:0000004300006300
#02952:33000033
#03054:00230000000000000000000000000000
#03057:0012
#09657:12001212
#09655:00320000
#09653:0032
#09659:00420000
#0965b:0042
#02157:0000000000630000
#0215b:43000023
#02158:0000000000000033
#02152:0000000000000066
#04856:63
#0855c:0062
#0855a:0062
#08458:52
#08456:62
#01659:00420000
#0165b:0042
#01653:0032
#01655:00320000
#01657:1212
#02453:0032
#0245b:00000042
#02455:23
#0255a:44
#02552:3400000000630033
#02556:00000023
#02558:0000000000000056
#0155b:1300006300001300
#01552:5300001300001300
#01556:0023000000000000
#01557:0023
#01355:13000013
#01357:0023000000000000
#0135b:63000063
#01358:0000001300000000
#01356:0023
#01352:0000005300000000
#09552:3300005300003600
#09558:0000004300004600
#0955b:6300004300000000
#09556:0023000000000000
#09557:0023
#09555:33
#05652:53
#0565b:0063
#05656:0023000000000000
#05657:0000000000230000
#05252:0000005300000000
#05256:0023
#11352:00130013
#11358:16
#11452:00130013
#1165b:00130013
#1155b:00130013
#11752:00130013
#11852:00130013
#1215b:00130013
#12152:16
#1225b:00130013
#12452:00130013
#12352:00130013
#01952:1300660000630033
#01956:0000000000002358
#01958:56
#0195b:00130000
#00657:00000000000000220000000000000000
#0055c:0000000000000062
#00552:52
#00557:00000000000000220000000000000000
#0045c:0000006200000000
#00457:00002200000000000000002200000000
#00352:0000000000000052
#00357:52
#0035c:00000000000000220000000000000000
#0015c:62
#00157:00000000000000220000000000000000
#00152:0000000000000052
#00257:00000000000000220000000000000000
#00752:52000052
#0075c:0000006200000000
#04157:0000000000000052
#01856:00000063
#01857:0023000053000000
#09359:0000001400000000
#09353:0000001400000000
#09352:00000016
#09358:00000016
#0935a:12
#09354:12
#02657:00000053
#02656:0023000063000000
#0275b:1300000000530043
#02757:00000023
#02752:6600130000000068
#02758:00560000
#02852:0024001600000000
#0285a:0000000000240000
#02856:000000000000000000000000000000000000000000000000000000000000000000000000000000000000000000000000000000000000000000000000000000000000000000000000000000000000000000000000000000000000000000000000000000000000000000000000000000000000000000000000000000000000000000000000000000000000000000000000000000000000000000000000000000000000000000000000000000000000000000000000000000000000000000000000000000000000000000000000000000000000000000000000000000000000000000000000000000000000000000000000000000000000000000000000000000000000000000000000000000000000000000000000000000000000000000000000000000000000000000000000000000000000000000000000000000000000000000000000000000000000000000000000000000000000000000000000000000000000000000000000000000000000000000000000000000000000000000000000000000000000000000000000000000000000000000000000000000000000000000000000000000000000000000000000000000000000000000000000000000000000000000000000000000000000000000000000000000000000000000000000000000000000000000000000000000000000000000000000000000000000000000000000000000000000000000000000000000000000000000000000000000000000000000000000000000000000000000000000000000000000000000000000000000000000000000000000000000000000000000000000000000000000000000000000000000000000000000000000000000000000000000000000000000000000000000000000000000000000000000000000000000000000000000000000000000000000000000000000000000000000000000000000000000000000000000000000000000000000000000000000005800000000000000000000000000000000000000000000000000000000000000000000000000000000000000000000000000000000000000000000000000000000000000000000000000000000000000000000000000000000000000000000000000000000000000000000000000000000000000000000000000000000000000000000000000000000000000000000000000000000000000000000000000000000000000000000000000000000000000000000000000000000000000000000000000000000000000000000000000000000000000000000000000000000000000000000000000000000000000000000000000000000000000000000000000000000000000000000000000000000000000000000000000000000000000000000000000000000000000000000000000000000000000000000000000000000000000000000000000000000000000000000000000000000000000000000000000000000000000000000000000000000000000000000000000000000000000000000000000000000000000000000000000000000000000000000000000000000000000000000000000000000000000000000000000000000000000000000000000000000000000000000000000000000000000000000000000000000000000000000000000000000000000000000000000000000000000000000000000000000000000000000000000000000000000000000000000000000000000000000000000000000000000000000000000000000000000000000000000000000000000000000000000000000000000000000000000000000000000000000000000000000000000000000000000000000000000000000000000000000000000000000000000000000000000000000000000000000000000000000000000000000000000000000000000000000000000000000000000000000000000000000000000000000000000000000000000000000000000000000000000000000000000000000000000000000000000000000000000000000000000000000000000000000000000000000000000000000000000000000000000000000000000000000000000000000000000000000000000000000000000000000000000000000000000000000000000000000000000000000000000000000000000000000000000000000000000000000000000000000000000000000000000000000000000000000000000000000000000000000000000000000000000000000000000000000000000000000000000000000000000000000000000000000000000000000000000000000000000000000000000000000000000000000000000000000000000000000000000000000000000000000000000000000000000000000000000000000000000000000000000000000000000000000000000000000000000000000000000000000000000000000000000000000000000000000000000000000000000000000000000000000000000000000000000000000000000000000000000000000000000000000000000000000000000000000000000000000000000000000000000000000000000000000000000000000000000000000000000000000000000000000000000000000000000000000000000000000000000000000
#02255:0053
#02252:00000053
#02256:0000000000000023
#02358:6600004300006600
#02352:3300005600000000
#02355:00000033
#0095a:0000000000000024
#00952:0000000000000024
#00955:00000000000000000000000000000054
#00957:000000000000000000000000000000000000000000000000000000000000000000000000000000000000000000000000000000000000000000000000000000000000000000000000000000000000000000000000000000000000000000000000000000000000000000000000000000000000000000000000000000000000000000000000000000000000000000000000000000000000000000000000000000000000000000000000000000000000000000000000000000000000000000000000000000000000000000000000000000000000000000000000000000000000000000000000000000000000000000000000000000000000000000000000000000000000000000000000000000000000000000000000000000000000000000000000000000000000000000000000000000000000000000000000000000000000000000000000000000000000000000000000000000000000000000000000000000000000000000000000000000000000000000000000000000000000000000000000000000000000000000000000000000000000000000000000000000000000000000000000000000000000000000000000000000000000000000000000000000000000000000000000000000000000000000000000000000000000000000000000000000000000000000000000000000000000000000000000000000000000000000000000000000000000000000000000000000000000000000000000000000000000000000000000000000000000000000000000000000000000000000000000000000000000000000000000000000000000000000000000000000000000000000000000000000000000000000000000000000000000000000000000000000000000000000000000000000000000000000000000000000000000000000000000000000000000000000000000000000000000000000000000000000000000000000000000000000000000000000000000000000000000000000000000000000000000000000000000000000000000000000000000000000000000000000000000000000000000000000000000000000000000000000000000000000000000000000000000000000000000000000000000000000000000000000000000000000000000000000000000000000000000000000000000000000000000000000000000000000000000000000000000000000000000000000000000000000000000000000000000000000000000000000000000000000000000000000000000000000000000000000000000000000000000000000000000000000000000000000000000000000000000000000000000000000000000000000000000000000000000000000000000000000000000000000000000000000000000000000000000000000000000000000000000000000000000000000000000000000000000000000000000000000000000000000000000000000000000000000000000000000000000000000000000000000000000000000000000000000000000000000000000000000000000000000000000000000000000000000000000000000000000000000000000000000000000000000000000000000000000000000000000000000000000000000000000000000000000000000000000000000000000000000000000000000000000000000000000000000000000000000000000000000000000000000000000000000000000000000000000000000000000000000000000000000000000000000000000000000000000000000000000000000000000000000000000000000000000000000000000000000000000000000000000000000000000000000000000000000000000000000000000000000000000000000000000000000000000000000000000000000000000000000000000000000000000000000000000000000000000000000000000000000000000000000000000000000000000000000000000000000000000000000000000000000000000000000000000000000000000000000000000000000000000000000000000000000000000000000000000000000000000000000000000000000000000000000000000000000000000000000000000000000000000000000000000000000000000000000000000000000000000000000000000000000000000000000000000000000000000000000000000000000000000000000000000000000000000000000000000000000000000000000000000000000000000000000000000000000000000000000000000000000000000000000000000000000000000000000000000000000000000000000000000000000000000000000000000000000000000000000000000000000000000000000000000000000000000000000000000000000000000000000000000000000000000000000000000000000000000000000000000000000000000000000000000000000000000000000000000006400000000000000000000000000000000000000000000000000000000000000000000000000000000000000000000000000000000000000000000000000000000000000000000000000000000000000000000000000000000000000000000000000000000000000000000000000000000000000000000
#0115a:0000000000000024
#01152:0000000000000024
#01155:00000000000000000000000000000054
#01157:000000000000000000000000000000000000000000000000000000000000000000000000000000000000000000000000000000000000000000000000000000000000000000000000000000000000000000000000000000000000000000000000000000000000000000000000000000000000000000000000000000000000000000000000000000000000000000000000000000000000000000000000000000000000000000000000000000000000000000000000000000000000000000000000000000000000000000000000000000000000000000000000000000000000000000000000000000000000000000000000000000000000000000000000000000000000000000000000000000000000000000000000000000000000000000000000000000000000000000000000000000000000000000000000000000000000000000000000000000000000000000000000000000000000000000000000000000000000000000000000000000000000000000000000000000000000000000000000000000000000000000000000000000000000000000000000000000000000000000000000000000000000000000000000000000000000000000000000000000000000000000000000000000000000000000000000000000000000000000000000000000000000000000000000000000000000000000000000000000000000000000000000000000000000000000000000000000000000000000000000000000000000000000000000000000000000000000000000000000000000000000000000000000000000000000000000000000000000000000000000000000000000000000000000000000000000000000000000000000000000000000000000000000000000000000000000000000000000000000000000000000000000000000000000000000000000000000000000000000000000000000000000000000000000000000000000000000000000000000000000000000000000000000000000000000000000000000000000000000000000000000000000000000000000000000000000000000000000000000000000000000000000000000000000000000000000000000000000000000000000000000000000000000000000000000000000000000000000000000000000000000000000000000000000000000000000000000000000000000000000000000000000000000000000000000000000000000000000000000000000000000000000000000000000000000000000000000000000000000000000000000000000000000000000000000000000000000000000000000000000000000000000000000000000000000000000000000000000000000000000000000000000000000000000000000000000000000000000000000000000000000000000000000000000000000000000000000000000000000000000000000000000000000000000000000000000000000000000000000000000000000000000000000000000000000000000000000000000000000000000000000000000000000000000000000000000000000000000000000000000000000000000000000000000000000000000000000000000000000000000000000000000000000000000000000000000000000000000000000000000000000000000000000000000000000000000000000000000000000000000000000000000000000000000000000000000000000000000000000000000000000000000000000000000000000000000000000000000000000000000000000000000000000000000000000000000000000000000000000000000000000000000000000000000000000000000000000000000000000000000000000000000000000000000000000000000000000000000000000000000000000000000000000000000000000000000000000000000000000000000000000000000000000000000000000000000000000000000000000000000000000000000000000000000000000000000000000000000000000000000000000000000000000000000000000000000000000000000000000000000000000000000000000000000000000000000000000000000000000000000000000000000000000000000000000000000000000000000000000000000000000000000000000000000000000000000000000000000000000000000000000000000000000000000000000000000000000000000000000000000000000000000000000000000000000000000000000000000000000000000000000000000000000000000000000000000000000000000000000000000000000000000000000000000000000000000000000000000000000000000000000000000000000000000000000000000000000000000000000000000000000000000000000000000000000000000000000000000000000000000000000000000000000000000000000000000000000000000000000000000006400000000000000000000000000000000000000000000000000000000000000000000000000000000000000000000000000000000000000000000000000000000000000000000000000000000000000000000000000000000000000000000000000000000000000000000000000000000000000000000
#01057:000000000000000000000000000000000000000000000000000000000000000000000000000000000000000000000000000000000000000000000000000000000000000000000000000000000000000000000000000000000000000000000000000000000000000000000000000000000000000000000000000000000000000000000000000000000000000000000000000000000000000000000000000000000000000000000000000000000000000000000000000000000000000000000000000000000000000000000000000000000000000000000000000000000000000000000000000000000000000000000000000000000000000000000000000000000000000000000000000000000000000000000000000000000000000000000000000000000000000000000000000000000000000000000000000000000000000000000000000000000000000000000000000000000000000000000000000000000000000000000000000000000000000000000000000000000000000000000000000000000000000000000000000000000000000000000000000000000000000000000000000000000000000000000000000000000000000000000000000000000000000000000000000000000000000000000000000000000000000000000000000000000000000000000000000000000000000000000000000000000000000000000000000000000000000000000000000000000000000000000000000000000000000000000000000000000000000000000000000000000000000000000000000000000000000000000000000000000000000000000000000000000000000000000000000000000000000000000000000000000000000000000000000000000000000000000000000000000000000000000000000000000000000000000000000000000000000000000000000000000000000000000000000000000000000000000000000000000000000000000000000000000000000000000000000000000000000000000000000000000000000000000000000000000000000000000000000000000000000000000000000000000000000000000000000000000000000000000000000000000000000000000000000000000000000000000000000000000000000000000000000000000000000000000000000000000000000000000000000000000000000000000000000000000000000000000000000000000000000000000000000000000000000000000000000000000000000000000000000000000000000000000000000000000000000000000000000000000000000000000000000000000000000000000000000000000000000000000000000000000000000000000000000000000000000000000000000000000000000000000000000000000000000000000000000000000000000000000000000000000000000000000000000000000000000000000000000000000000000000000000000000000000000000000000000000000000000000000000000000000000000000000000000000000000000000000000000000000000000000000000000000000000000000000000000000000000000000000000000000000000000000000000000000000000000000000000000000000000000000000000000000000000000000000000000000000000000000000000000000000000000000000000000000000000000000000000000000000000000000000000000000000000000000000000000000000000000000000000000000000000000000000000000000000000000000000000000000000000000000000000000000000000000000000000000000000000000000000000000000000000000000000000000000000000000000000000000000000000000000000000000000000000000000000000000000000000000000000000000000000000000000000000000000000000000000000000000000000000000000000000000000000000000000000000000000000000000000000000000000000000000000000000000000000000000000000000000000000000000000000000000000000000000000000000000000000000000000000000000000000000000000000000000000000000000000000000000000000000000000000000000000000000000000000000000000000000000000000000000000000000000000000000000000000000000000000000000000000000000000000000000000000000000000000000000000000000000000000000000000000000000000000000000000000000000000000000000000000000000000000000000000000000000000000000000000000000000000000000000000000000000000000000000000000000000000000000000000000000000000000000000000000000000000000000000000000000000000000000000000000000000000000000000000000000000000000000000000000000000000000000005400000000000000000000000000000000000000000000000000000000000000000000000000000000000000000000000000000000000000000000000000000000000000000000000000000000000000000000000000000000000000000000000000000000000000000000000000000000000000000000
#01055:00000000000000000000000000000064
#01058:0000000000000024
#01054:0000000000000024
#01455:23
#1195b:00000013
#11952:00130000
#03952:52
#03956:0000006200000000
#04557:0000000000000062
#0605b:0000006300000000
#06057:0023
#06152:54540024
#0615a:00242464
#06156:0000000000640000
#06154:0034
#06158:44
#0625a:00242464
#06252:24540024
#06256:0054000000640000
#06253:0034
#06259:44
#06352:00340034
#0635a:4444
#08652:00000000000000000052000000000000
#08654:00000000000000000052000000000000
#10352:13131313
#1025b:00130013
#1015b:00130013
#0205a:0024000000000000
#02052:000000000000000000000000000000000000000000000000000000000000000000000000000000000000000000000000000000000000000000000000000000000000000000000000000000000000000000000000000000000000000000000000000000000000000000000000000000000000000000000000000000000000000000000000000000000000000000000000000000000000000000000000000000000000000000000000000000000000000000000000000000000000000000000000000000000000000000000000000000000000000000000000000000000000000000000000000000000000000000000000000000000000000000000000000000000000000000000000000000000000000000000000000000000000000000000000000000000000000000000000000000000000000000000000000000000000000000000000000000000000000000000000000000000000000000000000000000000000000000000000000000000000000000000000000000000000000000000000000000000000000000000000000000000000000000000000000000000000000000000000000000000000000000000000000000000000000000000000000000000000000000000000000000000000000000000000000000000000000000000000000000000000000000000000000000000000000000000000000000000000000000000000000000000000000000000000000000000000000000000000000000000000000000000000000000000000000000000000000000000000000000000000000000000000000000000000000000000000000000000000000000000000000000000000000000000000000000000000000000000000000000000000000000000000000000000000000000000000000000000000000000000000000000000000000000000000000000000000000000000000000000000000000000000000000000000000000000000000000000000000006800000000000000000000000000000000000000000000000000000000000000000000000000000000000000000000000000000000000000000000000000000000000000000000000000000000000000000000000000000000000000000000000000000000000000000000000000000000000000000000000000000000000000000000000000000000000000000000000000000000000000000000000000000000000000000000000000000000000000000000000000000000000000000000000000000000000000000000000000000000000000000000000000000000000000000000000000000000000000000000000000000000000000000000000000000000000000000000000000000000000000000000000000000000000000000000000000000000000000000000000000000000000000000000000000000000000000000000000000000000000000000000000000000000000000000000000000000000000000000000000000000000000000000000000000000000000000000000000000000000000000000000000000000000000000000000000000000000000000000000000000000000000000000000000000000000000000000000000000000000000000000000000000000000000000000000000000000000000000000000240000000000000000000000000000000000000000000000000000000000000000000000000000000000000000000000000000000000000000000000000000000000000000000000000000000000000000000000000000000000000000000000000000000000000000000000000000000000000000000000000000000000000000000000000000000000000000000000000000000000000000000000000000000000000000000000000000000000000000000000000000000000000000000000000000000000000000000000000000000000000000000000000000000000000000000000000000000000000000000000000000000000000000000000000000000000000000000000000000000000000000000000000000000000000000000000000000000000000000000000000000000000000000000000000000000000000000000000000000000000000000000000000000000000000000000000000000000000000000000000000000000000000000000000000000000000000000000000000000000000000000000000000000000000000000000000000000000000000000000000000000000000000000000000000000000000000000000000000000000000000000000000000000000000000000000000000000000000000000000000000000000000000000000000000000000000000000000000000000000000000000000000000000000000000000000000000000000000000000000000000000000000000000000000000000000000000000000000000000000000000000000000000000000000000000000000000000000000000000000000000000000000000000000000000000000000000000000000000000000000000000000000000000000000000000000000000000000000000000000000000000000000000000000000000000000000000000000000000000000000000000000000000000000000000000000000000000000000000000000000
#02058:0000001600000000
#12852:00000000005300000000005300003300
#1285b:0063000063000043
#12855:0000000000000013
#12858:0000000000000013
#12856:000000000000000000000000000000000000000000000000000000000000000000000000000000000000000000000000000000000000000000000000000000000000000000000000000000000000000000000000000000000000000000000000000000000000000000000000000000000000000000000000000000000000000000000000000000000000000000000000000000000000000000000000000000000000000000000000000000000000000000000000000000000000000000000000000000000000000000000000000000000000000000000000000000000000000000000000000000000000000000000000000000000000000000000000000000000000000000000000000000000000000000000000000000000000000000000000000000000000000000000000000000000000000000000000000000000000000000000000000000000000000000000000000000000000000000000000000000000000000000000000000000000000000000000000000000000000000000000000000000000000000000000000000000000000000000000000000000000000000000000000000000000000000000000000000000000000000000000000000000000000000000000000000000000000000000000000000000000000000000000000000000000000000000000000000000000000000000000000000000000000000000000000000000000000000000000000000000000000000000000000000000000000000000000000000000000000000000000000000000000000000000000000000000000000000000000000000000000000000000000000000000000000000000000000000000000000000000000000000000000000000000000000000000000000000000000000000000000000000000000000000000000000000000000000000000000000000000000000000000000000000000000000000000000000000000000000000000000000000000000000000000000000000000000000000000000000000000000000000000000000000000000000000000000000000000000000000000000000000000000000000000000000000000000000000000000000000000000000000000000000000000000000000000000000000000000000000000000000000000000000000000000000000000000000000000000000000000000000000000000000000000000000000000000000000000000000000000000000000000000000000000000000000000000000000000000000000000000000000000000000000000000000000000000000000000000000000000000000000000000000000000000000000000000000000000000000000000000000000000000000000000000000000000000000000000000000000000000000000000000000000000000000000000000000000000000000000000000000000000000000000000000000000000000000000000000000000000000000000000000000000000000000000000000000000000000000000000000000000000000000000000000000000000000000000000000000000000000000000000000000000000000000000000000000000000000000000000000000000000000000000000000000000000000000000000000000000000000000000000000000000000000000000000000000000000000000000000000000000000000000000000000000000000000000000000000000000000000000000000000000000000000000000000000000000000000000000000000000000000000000000000000000000000000000000000000000000000000000000000000000000000000000000000000000000000000000000000000000000000000000000000000000000000000000000000000000000000000000000000000000000000000000000000000000000000000000000000000000000000000000000000000000000000000000000000000000000000000000000000242424240000000000000000000000000000000000000000000000000000000000000000000000000000000000000000000000000000000000000000000000000000000000000000000000000000000000000000000000000000000000000000000000000000000000000000000000000000000000000000000000000000000000000000000000000000000000000000000000000000000000000000000000000000000000000000000000000000000000000000000000000000000000000000000000000000000000000000000000000000000000000000000000000000000000000000000000000000000000000000000000000000000000000000000000000000000000000000000000000000000000000000000000000000000000000000000000000000000000000000000000000000000000000000000000000000000000000000000000000000000000000000000000000000000000000000000000000000000000000000000000000000000000000000000000000000000000000000000000000000000000000000000000000000000000000000000000000000000000000000000000000000000000000000000000000000000000000000000000000000000000000000000000000000000000000000000000000000000000000000000000
#06455:00320000
#06453:0032
#06459:00420000
#0645b:0042
#06457:1212
#10952:00120000
#1095c:00000012
#11052:00120000
#1105c:00000012
#0013c0:1200000000000022
#001370:00000000000000520000000000000000
#001321:0000000000000012
#002371:00000000000000520000000000000000
#003321:22
#003370:1200000000000022
#0033c0:00000000000000520000000000000000
#003321:0000000000000012
#004371:0052000000000000
#004321:0000002200000000
#0043c0:0000001200000000
#004370:00000000000000000000005200000000
#0053c0:22
#005321:1200000000000022
#005371:00000000000000520000000000000000
#0053c0:0000000000000012
#006370:00000000000000520000000000000000
#0073c0:22
#007321:12
#007361:0000002200000000
#0073c0:0000001200000000
#007380:00000022
#007321:00000012
#008361:22
#0093a1:1400000000000054
#009371:000000000000000000000000000000000000000000000000000000000000000000000000000000000000000000000000000000000000000000000000000000000000000000000000000000000000000000000000000000000000000000000000000000000000000000000000000000000000000000000000000000000000000000000000000000000000000000000000000000000000000000000000000000000000000000000000000000000000000000000000000000000000000000000000000000000000000000000000000000000000000000000000000000000000000000000000000000000000000000000000000000000000000000000000000000000000000000000000000000000000000000000000000000000000000000000000000000000000000000000000000000000000000000000000000000000000000000000000000000000000000000000000000000000000000000000000000000000000000000000000000000000000000000000000000000000000000000000000000000000000000000000000000000000000000000000000000000000000000000000000000000000000000000000000000000000000000000000000000000000000000000000000000000000000000000000000000000000000000000000000000000000000000000000000000000000000000000000000000000000000000000000000000000000000000000000000000000000000000000000000000000000000000000000000000000000000000000000000000000000000000000000000000000000000000000000000000000000000000000000000000000000000000000000000000000000000000000000000000000000000000000000000000000000000000000000000000000000000000000000000000000000000000000000000000000000000000000000000000000000000000000000000000000000000000000000000000000000000000000000000000000000000000000000000000000000000000000000000000000000000000000000000000000000000000000000000000000000000000000000000000000000000000000000000000000000000000000000000000000000000000000000000000000000000000000000000000000000000000000000000000000000000000000000000000000000000000000000000000000000000000000000000000000000000000000000000000000000000000000000000000000000000000000000000000000000000000000000000000000000000000000000000000000000000000000000000000000000000000000000000000000000000000000000000000000000000000000000000000000000000000000000000000000000000000000000000000000000000000000000000000000000000000000000000000000000000000000000000000000000000000000000000000000000000000000000000000000000000000000000000000000000000000000000000000000000000000000000000000000000000000000000000000000000000000000000000000000000000000000000000000000000000000000000000000000000000000000000000000000000000000000000000000000000000000000000000000000000000000000000000000000000000000000000000000000000000000000000000000000000000000000000000000000000000000000000000000000000000000000000000000000000000000000000000000000000000000000000000000000000000000000000000000000000000000000000000000000000000000000000000000000000000000000000000000000000000000000000000000000000000000000000000000000000000000000000000000000000000000000000000000000000000000000000000000000000000000000000000000000000000000000000000000000000000000000000000000000000000000000000000000000000000000000000000000000000000000000000000000000000000000000000000000000000000000000000000000000000000000000000000000000000000000000000000000000000000000000000000000000000000000000000000000000000000000000000000000000000000000000000000000000000000000000000000000000000000000000000000000000000000000000000000000000000000000000000000000000000000000000000000000000000000000000000000000000000000000000000000000000000000000000000000000000000000000000000000000000000000000000000000000000000000000000000000000000000000000000000000000000000000000000000000000000000000000000000000000000000000000000000000000000000000000000000000000000000000000000000000000000000000000000000000000000000000000000000000000000000000000000000000005400000000000000000000000000000000000000000000000000000000000000000000000000000000000000000000000000000000000000000000000000000000000000000000000000000000000000000000000000000000000000000000000000000000000000000000000000000000000000000000
#010341:5400000000000054
#010371:000000000000000000000000000000000000000000000000000000000000000000000000000000000000000000000000000000000000000000000000000000000000000000000000000000000000000000000000000000000000000000000000000000000000000000000000000000000000000000000000000000000000000000000000000000000000000000000000000000000000000000000000000000000000000000000000000000000000000000000000000000000000000000000000000000000000000000000000000000000000000000000000000000000000000000000000000000000000000000000000000000000000000000000000000000000000000000000000000000000000000000000000000000000000000000000000000000000000000000000000000000000000000000000000000000000000000000000000000000000000000000000000000000000000000000000000000000000000000000000000000000000000000000000000000000000000000000000000000000000000000000000000000000000000000000000000000000000000000000000000000000000000000000000000000000000000000000000000000000000000000000000000000000000000000000000000000000000000000000000000000000000000000000000000000000000000000000000000000000000000000000000000000000000000000000000000000000000000000000000000000000000000000000000000000000000000000000000000000000000000000000000000000000000000000000000000000000000000000000000000000000000000000000000000000000000000000000000000000000000000000000000000000000000000000000000000000000000000000000000000000000000000000000000000000000000000000000000000000000000000000000000000000000000000000000000000000000000000000000000000000000000000000000000000000000000000000000000000000000000000000000000000000000000000000000000000000000000000000000000000000000000000000000000000000000000000000000000000000000000000000000000000000000000000000000000000000000000000000000000000000000000000000000000000000000000000000000000000000000000000000000000000000000000000000000000000000000000000000000000000000000000000000000000000000000000000000000000000000000000000000000000000000000000000000000000000000000000000000000000000000000000000000000000000000000000000000000000000000000000000000000000000000000000000000000000000000000000000000000000000000000000000000000000000000000000000000000000000000000000000000000000000000000000000000000000000000000000000000000000000000000000000000000000000000000000000000000000000000000000000000000000000000000000000000000000000000000000000000000000000000000000000000000000000000000000000000000000000000000000000000000000000000000000000000000000000000000000000000000000000000000000000000000000000000000000000000000000000000000000000000000000000000000000000000000000000000000000000000000000000000000000000000000000000000000000000000000000000000000000000000000000000000000000000000000000000000000000000000000000000000000000000000000000000000000000000000000000000000000000000000000000000000000000000000000000000000000000000000000000000000000000000000000000000000000000000000000000000000000000000000000000000000000000000000000000000000000000000000000000000000000000000000000000000000000000000000000000000000000000000000000000000000000000000000000000000000000000000000000000000000000000000000000000000000000000000000000000000000000000000000000000000000000000000000000000000000000000000000000000000000000000000000000000000000000000000000000000000000000000000000000000000000000000000000000000000000000000000000000000000000000000000000000000000000000000000000000000000000000000000000000000000000000000000000000000000000000000000000000000000000000000000000000000000000000000000000000000000000000000000000000000000000000000000000000000000000000000000000000000000000000000000000000000000000000000000000000000000000000000000000000000000000000000000000000000000000000000000000000000000005400000000000000000000000000000000000000000000000000000000000000000000000000000000000000000000000000000000000000000000000000000000000000000000000000000000000000000000000000000000000000000000000000000000000000000000000000000000000000000000
#0113a1:5400000000000054
#011371:000000000000000000000000000000000000000000000000000000000000000000000000000000000000000000000000000000000000000000000000000000000000000000000000000000000000000000000000000000000000000000000000000000000000000000000000000000000000000000000000000000000000000000000000000000000000000000000000000000000000000000000000000000000000000000000000000000000000000000000000000000000000000000000000000000000000000000000000000000000000000000000000000000000000000000000000000000000000000000000000000000000000000000000000000000000000000000000000000000000000000000000000000000000000000000000000000000000000000000000000000000000000000000000000000000000000000000000000000000000000000000000000000000000000000000000000000000000000000000000000000000000000000000000000000000000000000000000000000000000000000000000000000000000000000000000000000000000000000000000000000000000000000000000000000000000000000000000000000000000000000000000000000000000000000000000000000000000000000000000000000000000000000000000000000000000000000000000000000000000000000000000000000000000000000000000000000000000000000000000000000000000000000000000000000000000000000000000000000000000000000000000000000000000000000000000000000000000000000000000000000000000000000000000000000000000000000000000000000000000000000000000000000000000000000000000000000000000000000000000000000000000000000000000000000000000000000000000000000000000000000000000000000000000000000000000000000000000000000000000000000000000000000000000000000000000000000000000000000000000000000000000000000000000000000000000000000000000000000000000000000000000000000000000000000000000000000000000000000000000000000000000000000000000000000000000000000000000000000000000000000000000000000000000000000000000000000000000000000000000000000000000000000000000000000000000000000000000000000000000000000000000000000000000000000000000000000000000000000000000000000000000000000000000000000000000000000000000000000000000000000000000000000000000000000000000000000000000000000000000000000000000000000000000000000000000000000000000000000000000000000000000000000000000000000000000000000000000000000000000000000000000000000000000000000000000000000000000000000000000000000000000000000000000000000000000000000000000000000000000000000000000000000000000000000000000000000000000000000000000000000000000000000000000000000000000000000000000000000000000000000000000000000000000000000000000000000000000000000000000000000000000000000000000000000000000000000000000000000000000000000000000000000000000000000000000000000000000000000000000000000000000000000000000000000000000000000000000000000000000000000000000000000000000000000000000000000000000000000000000000000000000000000000000000000000000000000000000000000000000000000000000000000000000000000000000000000000000000000000000000000000000000000000000000000000000000000000000000000000000000000000000000000000000000000000000000000000000000000000000000000000000000000000000000000000000000000000000000000000000000000000000000000000000000000000000000000000000000000000000000000000000000000000000000000000000000000000000000000000000000000000000000000000000000000000000000000000000000000000000000000000000000000000000000000000000000000000000000000000000000000000000000000000000000000000000000000000000000000000000000000000000000000000000000000000000000000000000000000000000000000000000000000000000000000000000000000000000000000000000000000000000000000000000000000000000000000000000000000000000000000000000000000000000000000000000000000000000000000000000000000000000000000000000000000000000000000000000000000000000000000000000000000000000000000000000000000000000000000000000000005400000000000000000000000000000000000000000000000000000000000000000000000000000000000000000000000000000000000000000000000000000000000000000000000000000000000000000000000000000000000000000000000000000000000000000000000000000000000000000000
#012351:53
#013351:23
#009320:1400000000000054
#009350:00000000000000000000000000000054
#010380:5400000000000054
#010350:00000000000000000000000000000054
#011320:5400000000000054
#011350:00000000000000000000000000000054
#012380:53
#013380:23
#0133b2:13230000
#013372:0053000000000000
#013322:0000001300230000
#013362:0053
#0133b2:00000013
#014352:53
#0143b2:00230000
#015322:13230000
#015362:0053000000000000
#0153b2:0000001300230000
#015372:0053
#0173b2:0000001323000000
#017320:0000000013230000
#0173b2:0000000000130023
#017372:00000053
#017320:0000000000000016
#018370:0053000000000000
#018320:0023
#018372:0013
#0183b2:00000023
#018360:00000013
#019320:23
#019382:16
#0193b2:0053230000000000
#019320:0000165323000000
#019320:0000000000130023
#019360:00000053
#019362:0000000000000018
#0203a2:0054000000000000
#020322:000000000000000000000000000000000000000000000000000000000000000000000000000000000000000000000000000000000000000000000000000000000000000000000000000000000000000000000000000000000000000000000000000000000000000000000000000000000000000000000000000000000000000000000000000000000000000000000000000000000000000000000000000000000000000000000000000000000000000000000000000000000000000000000000000000000000000000000000000000000000000000000000000000000000000000000000000000000000000000000000000000000000000000000000000000000000000000000000000000000000000000000000000000000000000000000000000000000000000000000000000000000000000000000000000000000000000000000000000000000000000000000000000000000000000000000000000000000000000000000000000000000000000000000000000000000000000000000000000000000000000000000000000000000000000000000000000000000000000000000000000000000000000000000000000000000000000000000000000000000000000000000000000000000000000000000000000000000000000000000000000000000000000000000000000000000000000000000000000000000000000000000000000000000000000000000000000000000000000000000000000000000000000000000000000000000000000000000000000000000000000000000000000000000000000000000000000000000000000000000000000000000000000000000000000000000000000000000000000000000000000000000000000000000000000000000000000000000000000000000000000000000000000000000000000000000000000000000000000000000000000000000000000000000000000000000000000000000000000000000000003800000000000000000000000000000000000000000000000000000000000000000000000000000000000000000000000000000000000000000000000000000000000000000000000000000000000000000000000000000000000000000000000000000000000000000000000000000000000000000000000000000000000000000000000000000000000000000000000000000000000000000000000000000000000000000000000000000000000000000000000000000000000000000000000000000000000000000000000000000000000000000000000000000000000000000000000000000000000000000000000000000000000000000000000000000000000000000000000000000000000000000000000000000000000000000000000000000000000000000000000000000000000000000000000000000000000000000000000000000000000000000000000000000000000000000000000000000000000000000000000000000000000000000000000000000000000000000000000000000000000000000000000000000000000000000000000000000000000000000000000000000000000000000000000000000000000000000000000000000000000000000000000000000000000000000000000000000000000000000000540000000000000000000000000000000000000000000000000000000000000000000000000000000000000000000000000000000000000000000000000000000000000000000000000000000000000000000000000000000000000000000000000000000000000000000000000000000000000000000000000000000000000000000000000000000000000000000000000000000000000000000000000000000000000000000000000000000000000000000000000000000000000000000000000000000000000000000000000000000000000000000000000000000000000000000000000000000000000000000000000000000000000000000000000000000000000000000000000000000000000000000000000000000000000000000000000000000000000000000000000000000000000000000000000000000000000000000000000000000000000000000000000000000000000000000000000000000000000000000000000000000000000000000000000000000000000000000000000000000000000000000000000000000000000000000000000000000000000000000000000000000000000000000000000000000000000000000000000000000000000000000000000000000000000000000000000000000000000000000000000000000000000000000000000000000000000000000000000000000000000000000000000000000000000000000000000000000000000000000000000000000000000000000000000000000000000000000000000000000000000000000000000000000000000000000000000000000000000000000000000000000000000000000000000000000000000000000000000000000000000000000000000000000000000000000000000000000000000000000000000000000000000000000000000000000000000000000000000000000000000000000000000000000000000000000000000000000000000000000000
#0213b2:23
#021382:0000001323000000
#021320:0000000013230000
#021372:0000000000130000
#0213b2:00000053
#021382:0000000000000023
#021320:0000000000000016
#0223b0:00532300
#022352:0013
#0223b2:00000023
#022320:00000013
#022360:0000000000000053
#023320:23
#023382:1600002300000000
#023320:0000001600000000
#023350:00000023
#023382:00000016
#024352:53
#0243b2:00230000
#025322:0000001323000000
#0253b0:0000000013230000
#025322:0000000000130023
#025362:00000053
#025380:0000000000000016
#026360:0053000000000000
#0263b0:0023
#026362:0013
#026322:00000023
#026370:00000013
#0273b0:23
#027322:1653230000000000
#027380:00160000
#0273b0:0000005323000000
#0273b0:0000000000130023
#027370:00000053
#027322:0000000000000018
#028322:0054000000000000
#028362:000000000000000000000000000000000000000000000000000000000000000000000000000000000000000000000000000000000000000000000000000000000000000000000000000000000000000000000000000000000000000000000000000000000000000000000000000000000000000000000000000000000000000000000000000000000000000000000000000000000000000000000000000000000000000000000000000000000000000000000000000000000000000000000000000000000000000000000000000000000000000000000000000000000000000000000000000000000000000000000000000000000000000000000000000000000000000000000000000000000000000000000000000000000000000000000000000000000000000000000000000000000000000000000000000000000000000000000000000000000000000000000000000000000000000000000000000000000000000000000000000000000000000000000000000000000000000000000000000000000000000000000000000000000000000000000000000000000000000000000000000000000000000000000000000000000000000000000000000000000000000000000000000000000000000000000000000000000000000000000000000000000000000000000000000000000000000000000000000000000000000000000000000000000000000000000000000000000000000000000000000000000000000000000000000000000000000000000000000000000000000000000000000000000000000000000000000000000000000000000000000000000000000000000000000000000000000000000000000000000000000000000000000000000000000000000000000000000000000000000000000000000000000000000000000000000000000000000000000000000000000000000000000000000000000000000000000000000000000000000000003800000000000000000000000000000000000000000000000000000000000000000000000000000000000000000000000000000000000000000000000000000000000000000000000000000000000000000000000000000000000000000000000000000000000000000000000000000000000000000000000000000000000000000000000000000000000000000000000000000000000000000000000000000000000000000000000000000000000000000000000000000000000000000000000000000000000000000000000000000000000000000000000000000000000000000000000000000000000000000000000000000000000000000000000000000000000000000000000000000000000000000000000000000000000000000000000000000000000000000000000000000000000000000000000000000000000000000000000000000000000000000000000000000000000000000000000000000000000000000000000000000000000000000000000000000000000000000000000000000000000000000000000000000000000000000000000000000000000000000000000000000000000000000000000000000000000000000000000000000000000000000000000000000000000000000000000000000000000000000000000000000000000000000000000000000000000000000000000000000000000000000000000000000000000000000000000000000000000000000000000000000000000000000000000000000000000000000000000000000000000000000000000000000000000000000000000000000000000000000000000000000000000000000000000000000000000000000000000000000000000000000000000000000000000000000000000000000000000000000000000000000000000000000000000000000000000000000000000000000000000000000000000000000000000000000000000000000000000000000000000000000000000000000000000000000000000000000000000000000000000000000000000000000000000000000000000000000000000000000000000000000000000000000000000000000000000000000000000000000000000000000000000000000000000000000000000000000000000000000000000000000000000000000000000000000000000000000000000000000000000000000000000000000000000000000000000000000000000000000000000000000000000000000000000000000000000000000000000000000000000000000000000000000000000000000000000000000000000000000000000000000000000000000000000000000000000000000000000000000000000000000000000000000000000000000000000000000000000000000000000000000000000000000000000000000000000000000000000000000000000000000000000000000000000000000000000000000000000000000000000000000000000000000000000000000000000000000000000000000000000000000000000000000000000000000000000000000000000000000000000000000000000000000000000000000000000000000000000000000000000000000000000000000000000000000000000000000000000000000000
#0283a2:0000000000540000
#029322:23
#0293b2:00000013
#030342:00530000000000000000000000000000
#0303b2:0000002300000000
#031342:1200002200000000
#031382:00000052000000000000000000000000
#031320:1200002200000000
#031360:00000052000000000000000000000000
#0313a1:0000001200002200
#031361:00000000000000000052000000000000
#0313c3:0000001200002200
#031383:00000000000000000052000000000000
#0333c3:12220000
#0333a1:00122200
#0333c1:0000000000000012
#034391:0022000000000000
#034373:0012000000000000
#0343a3:0000002200000000
#0343c1:0000001200000000
#034381:0000000000220000
#035381:12220000
#0353a3:0000122200000000
#035381:0000001222000000
#0353c3:0000000012220000
#035383:0000000000000012
#036383:0022000000000000
#0363a1:0012002200000000
#0363c3:00000000000012000000002200000000
#037323:12220000
#037341:00122200
#037321:0000000000000012
#038351:0022000000000000
#038373:0012000000000000
#038343:0000002200000000
#038321:0000001200000000
#038361:0000000000220000
#039321:12
#039361:00220000
#039361:0000001200000000
#039321:0000000000220000
#041321:12
#041351:00220000
#041393:00120000
#0413c3:0022
#041373:0000000000000012
#0423a3:0022000000000000
#0423c1:0012002200000000
#043381:12220000
#0433a3:0000122200000000
#0433c1:0000001222000000
#0433a3:0000000012220000
#0433c3:0000000000000012
#0443c3:0022000000000000
#044381:0012220000000000
#0443a3:0000122200000000
#0443c1:0000001200220000
#0453c1:12
#045391:00220000
#045353:00120000
#045323:0022
#045373:0000000000000012
#046343:0022000000000000
#046321:0012002200000000
#048361:13
#048321:00000000000000000000000000530000
#049321:23
#049383:1323000000000000
#0493b3:0000132300000000
#049383:0000000000001323
#050353:1323000000000000
#050323:0000132300000000
#050353:0000000000001323
#051323:13230000
#0513b3:00001323
#052323:0000001300230000
#052363:0053
#053323:0000132300000000
#0533b3:0000000000001323
#054323:1300002300000000
#054351:0013002300000000
#054380:0000132300000000
#0543b1:0000000013000023
#054380:0000000000130023
#054353:0000000000001323
#055380:0000132300000000
#055350:0000000000001323
#056320:13230000
#056360:0053000000000000
#0563b0:00001323
#056370:0000000000530000
#057320:00132300
#057383:0000000013230000
#057353:0000000000001323
#0583b3:00132300
#058350:0000000013230000
#058380:0000000000001323
#0593b0:13230000
#059320:00001323
#0603b0:0000001300230000
#060370:0053
#061320:14
#0613a0:00540000
#061340:0024
#061323:00140054
#0613a3:0034
#061363:0000000000540000
#062393:24
#0613a0:00000014
#062320:34
#062360:0054000000000000
#0623a0:00340000
#062330:0024
#062323:00140054
#0623a3:0034
#062363:0000000000540000
#0633a3:24
#0623a0:00000014
#063320:24
#0653b0:13
#0663b0:0023
#067320:13
#068320:0023
#073320:15
#074320:0025
#075390:15
#076390:0025
#081380:16
#084360:52
#084320:00000052
#085320:52
#086320:52000000000000000052000000000000
#087340:52
#089340:22
#081323:16
#084383:52
#0843c3:00000052
#0853c3:5252
#0863a3:52
#0893a3:22
#0853a1:1252
#086381:22
#086342:12000000000000000052000000000000
#087362:22
#0893c2:12
#0913c2:22
#089321:12
#091321:22
#091343:12
#093343:22
#0913a0:12
#0933a0:22
#0953b0:13230000
#095360:0053000000000000
#095320:0000001300230000
#095370:0053
#104320:1323
#1043b3:0013
#1053b3:23
#113353:00000000001300230000000000000000
#1133b3:0000000013230000
#1143b3:00000000000000001300002300000000
#115323:00000000001300230000000000000000
#115353:0000000013230000
#116353:0000001300230000
#117383:00000000001300230000000000000000
#1173b3:0000000013230000
#1183b3:00000000000000001300002300000000
#119383:00000000001300230000000000000000
#119323:0000000013230000
#1203b3:13230000
#120320:00132300
#1203b3:00001323
#120320:00000013
#120340:0000000000000000000000000000000000000000000000000033000000000000
#120350:00000000000000000000000000330000
#120360:0000000000000000000000000000000000000000000000000000003300000000
#120370:0000000000000033
#120380:0000000000000000000000000000000000000000000000000000000000330000
#120390:00000000000000000000000000000033
#1203a0:0000000000000000000000000000000000000000000000000000000000000033
#1213b0:23
#121380:00000000001300230000000000000000
#121320:0000000013230000
#122320:00000000000000001300002300000000
#1233b0:00000000001300230000000000000000
#123380:0000000013230000
#124380:0000001300230000
#127350:0000000013230000
#127383:0000000013230000
#1283b3:0013000000000000
#128363:00000000000000000000000000000000000000000000000000000000000000000000000000000000000000000000000000000000000000000000000000000000000000000000000000000000000000000000000000000000000000000000000000000000000000000000000000000000000000000000000054000000000000000000000000000000000000000000000000000000000000000000000000000000000000000000000000000000000000000000000000000000000000000000000000000000000000000000000000000000000000000000000000000000000000000000000000000000000000000000000000000000000000000000000000000000000000000000000000000000000000000000000000000000000000000000000000000000000000000000000000000000000000000000000000000000000000000000000000000000000000000000000000000000000000000000000000000000000000000000000000000000000000000000000000000000000000000000000000000000000000000000000000000000000000000000000000000000000000000000000000000000000000000000000000000000000000000000000000000000000000000000000000000000000000000000000000000000000000000000005400000000000000000000000000000000000000000000000000000000000000000000000000000000000000000000000000000000000000000000000000000000000000000000000000000000000000000000000000000000000000000000000000000000000000000000000000000000000000000000000000000000000000000000000000000000000000000000000000000000000000000000000000000000
#128383:0000000000000023
#128320:00000000001300000000000000000000
#128360:000000000000000000000000000000000000000000000000000000000000000000000000000000000000000000000000000000000000000000000000000000000000000000000000000000000000000000000000000000000000000000000000000000000000000000000000000000000000000000000000000000000000000000000000000000000000000000000000000000000000000000000000000000000000000000000000000000000000000000000000000000000000000000000000000000000000000000000000000000000000000000000000000000000000000000000000000000000000000000000000000000000000000000000000000000000000000000000000000000000000000000000000000000000000000000000000000000000000000000000000000000000000000000000000000000000000000000000000000000000000000000000000000000000000000000000000000000000000000000000000540000000000000000000000000000000000000000000000000000000000000000000000000000000000000000000000000000000000000000000000000000000000000000000000000000000000000000000000000000000000000000000000000000000000000000000000000000000000000000000000000000000000000000000000000000000000000000000000000000000000000000000000000000000000000000000000000000000000000000000000000000000000000000000000000000000000000000000000000000000000000000000000000000000000000000000000000000000000000000000000000000000000000000000000000000000000000000000000000000000000000000000000000000000000000000000000000000000000000000000000000000000000000000000000000000000000000000000000000000000000000000000000000000000000000000000000000000000000000000000054000000000000000000000000000000000000000000000000000000000000000000000000000000000000000000000000000000000000000000000000000000000000000000000000000000000000000000000000000000000000000000000000000000000000000000000000000000000000000000000000000000000000000000000000000000000000000000000000000000000000000000000000000000000000000000000000000000000000000000000000000000000000000000000000000000000000000000000000000000000000000000000000000000000000000000000000000000000000000000000000
#128350:0000000000000023
#1283b1:0000000013000023
#128361:000000000000000000000000000000000000000000000000000000000000000000000000000000000000000000000000000000000000000000000000000000000000000000000000000000000000000000000000000000000000000000000000000000000000000000000000000000000000000000000000000000000000000000000000000000000000000000000000000000000000000000000000000000000000000000000000000000000000000000000000000000000000000000000000000000000000000000000000000000000000000000000000000000000000000000000000000000000000000000000000000000000000000000000000000000000000000000000000000000000000000000000000000000000000000000000000000000000000000000000000000000000000000000000000000000000000000000000000000000000000000000000000000000000000000000000000000000000000000000000000000000000000000000000000000000000000000000000000000000000000000000000000000000000000000000000000000000000000000000000000000000000000000000000000000000000000000000000000000000000000000000000000000000000000000000000000000000000000000000000000000000000000000000000000000000000000000000000000000000000000000000000000000000000000000000000000000000000000000000000000000000000000000000000000000000000000000000000000000000000000000000000000000000000000000000000000000000000000000000000000000000000000000000000000000000000000000000000000000000000000000000000000000000000000000000000000000000000000000000000000000000000000000000000000000000000000000000000000000000000000000000000000000000000000000000000000000000000000000000000000000000000000000000000000000000000000000000000000000000000000000000000000000000000000000000000000000000000000000000000000000000000000000000000000000000000000000000000000000000000000000000000000000000000000000000000000000000000000000000000000000000000000000000000000000000000000000000000000000000000000000000000000000000000000000000000000000000000000000000000000000000000000000000000000000000000000000000000000000000000000000000000000000000000000000000000000000000000000000000000000000000000000000000000000000000000000000000000000000000000000000000000000000000000000000000000000000000000000000000000000000000000000000000000000000000000000000000000000000000000000000000000000000000000000000000000000000000000000000000000000540000000000000000000000000000000000000000000000000000000000000000000000000000000000000000000000000000000000000000000000000000000000000000000000000000000000000000000000000000000000000000000000000000000000000000000000000000000000000000000000000000000000000000000000000000000000000000000000000000000000000000000000000000000000000000000000000000000000000000000000000000000000000000000000000000000000000000000000000000000000000000000000000000000000000000000000000000000000000000000000000000000000000000000000000000000000000000000000000000000000000000000000000000000000000000000000000000000000000000000000000000000000000000000000000000000000000000000000000000000000000000000000000000000000000000000000000000000000000000000054000000000000000000000000000000000000000000000000000000000000000000000000000000000000000000000000000000000000000000000000000000000000000000000000000000000000000000000000000000000000000000000000000000000000000000000000000000000000000000000000000000000000000000000000000000000000000000000000000000000000000000000000000000000000000000000000000000000000000000000000000000000000000000000000000000000000000000000000000000000000000000000000000000000000000000000000000000000000000000000000000000000000000000000000000000000000000000000000000000000000000000000000000000000000000000000000000000000000000000000000000000000000000000000000000000000000000000000000000000000000000000000000000000000000000000000000000000000000000000000000000000000000000000000000000000000000000000000000000000000000000000000000000000000000000000000000000000000000000000000000000000000000000000000000000000000000000000000000000000000000000000000000000000000000000000000000000000000000000000000000
#128322:00000000000000000000001300002300
#128362:00000054
