This file was generated by Ched 2.6.4.0.
#TITLE ""
#ARTIST ""
#DESIGNER ""
#DIFFICULTY 0
#PLAYLEVEL
#SONGID ""
#WAVE ""
#WAVEOFFSET 0
#JACKET ""
#REQUEST "ticks_per_beat 480"
#00002: 4
#BPM01: 190
#BPM02: 200
#BPM03: 210
#BPM04: 220
#BPM05: 230
#BPM06: 170
#BPM07: 180
#BPM08: 185
#BPM09: 195
#00008: 01
#08708: 01
#06108: 0002
#08908: 02
#06208: 0304
#06308: 05
#08108: 06
#08508: 07
#08608: 08
#08808: 09
#TIL00: ""
#HISPEED 00
#MEASUREHS 00
#0011a:14
#00114:0014
#00218:14
#00212:0014
#0031a:14
#00314:0014
#00418:14
#00518:0014
#00614:14
#0061a:0014
#00712:14
#00718:0014
#00814:14
#00914:00140000
#00918:0014
#00912:00000014
#0101a:14
#01014:00140000
#01018:0014
#01012:00000014
#0131a:00000014
#01518:14
#0171a:14
#01714:00140000
#01718:0014
#01712:00000014
#01710:41
#0181a:14
#01818:00343400
#01912:14
#01918:00140000
#01914:0014
#0191a:00000014
#02012:14
#02014:00343400
#02118:14
#02112:00140000
#0211a:0014
#02114:00000014
#02218:14
#0221a:00343400
#02314:14
#0231a:00140000
#02312:0014
#02318:00000014
#02414:14
#02412:00343400
#02518:1414
#02514:00140014
#0261a:14
#02612:00140000
#02714:1414
#02718:00140014
#02812:14
#0281a:00140000
#0291a:14
#02918:00343400
#03014:14
#03012:00343400
#03112:14
#03114:00343400
#03218:14
#0321a:00343400
#03312:1414
#03318:00140014
#03310:41
#03414:1414
#0341a:00140014
#03712:14
#03718:00140000
#03714:0014
#0371a:00000014
#03814:1414
#0381a:00140000
#03818:00000014
#03912:14
#03918:00140000
#03914:0014
#0391a:00000014
#04014:14
#0401a:00140000
#0411a:1414
#04114:00140014
#04218:1414
#04212:00140014
#0451a:14
#04514:00140000
#04518:0014
#04512:00000014
#04618:1414
#04612:00140000
#04614:00000014
#0471a:14
#04714:00140000
#04718:0014
#04712:00000014
#04818:14
#04812:00140000
#05712:14140000
#05718:00001414
#05814:14140000
#0581a:00001414
#05912:14140000
#05918:00001414
#06014:14140000
#0601a:00001414
#06112:14
#06114:0014
#06212:14
#06214:0014
#0651a:1414
#06514:00140000
#06510:41
#06612:1414
#06618:00140000
#0671a:1414
#06714:00140000
#06812:1414
#06818:00140000
#0691a:1414
#06914:00140014
#07018:1414
#07012:00140014
#0711a:1414
#07114:00140014
#07218:1414
#07212:00140000
#07312:1414
#07318:00140000
#0741a:1414
#07414:00140000
#07512:1414
#07518:00140000
#0761a:1414
#07614:00140000
#07712:1414
#07718:00140014
#07814:1414
#0781a:00140014
#07912:1414
#07918:00140014
#08014:1414
#0801a:00140000
#08914:0014
#09018:14
#09012:0014
#09118:14
#09114:0014
#0921a:14
#09214:0014
#09712:14
#09718:00140000
#09714:0014
#0971a:00000014
#0971f:21
#09812:14
#09818:00140000
#0991a:14
#09914:00140000
#09918:0014
#09912:00000014
#09910:41
#1001a:14
#10014:00140000
#10312:14
#10318:00140000
#10314:0014
#1031a:00000014
#10412:14
#1051a:14
#10514:00140000
#10518:0014
#10512:00000014
#1061a:14
#10614:00140000
#10712:14
#10718:00140000
#10714:0014
#1071a:00000014
#10812:14
#10818:00140000
#1111a:14
#11114:00140000
#11118:0014
#11112:00000014
#1121a:14
#11712:1414
#11718:00140014
#11814:1414
#1181a:00140014
#11912:1414
#11918:00140014
#12014:1414
#1201a:00140014
#12512:14140000
#12518:00001414
#12614:14140000
#1261a:00001414
#12712:1414
#1271a:00140014
#0851f:11
#01612:2626
#01618:00260000
#06418:00260000
#06412:0026
#09319:24
#09513:24
#09618:2626
#09612:00260000
#11310:41
#04910:41
#0135a:00000054
#01558:54
#0185a:54
#02052:64
#02258:54
#02454:64
#0295a:54
#03054:54
#03152:54
#03258:54
#06152:54
#06154:0054
#06252:54
#06254:0054
#10452:54
#10454:00000014
#1125a:64
#11258:00000014
#12856:0000000000000014
#01652:0016
#06452:0016
#09658:0016
#004320:0014
#005320:24
#0083a0:0014
#0093a0:24
#0113a0:14240000
#011340:00001424
#012380:14240000
#012320:00001424
#0133a0:1400003400003400
#014380:00240000
#014340:00001424
#015380:14
#0153a0:00000024
#0183a0:14
#018380:00343424
#020320:14
#020340:00343424
#022380:14
#0223a0:00343424
#024340:14
#024320:00343424
#0263a0:00001424
#028320:00001424
#0293a0:14
#029380:00343424
#030340:14
#030320:00343424
#031320:14
#031340:00343424
#032380:14
#0323a0:00343424
#035320:14240000
#035380:00001424
#036340:14240000
#0363a0:00001424
#040340:00001424
#0433a0:14240000
#043340:00001424
#044380:14240000
#044320:00001424
#048380:00001424
#049320:14000034
#049340:00343400
#050320:34000024
#050340:00343400
#0513a0:14000034
#051380:00343400
#0523a0:34000024
#052380:00343400
#053340:14000034
#053320:00343400
#054340:34000024
#054320:00343400
#055380:14000034
#0553a0:00343400
#056380:34000024
#0563a0:00343400
#061320:14
#061340:0034
#062320:34
#062340:0034
#063320:3434
#063330:00340034
#064320:24
#0813a0:14
#083380:34
#0853a0:34
#087380:34
#0893a0:24
#093390:1400003400003400
#094390:0024
#095330:1400003400002400
#098340:00001424
#100380:00001424
#101320:14
#101340:00240000
#1013a0:0014
#101380:00000024
#102320:14
#102340:00240000
#1023a0:0014
#102380:00000024
#104320:14
#104340:00000024
#106380:00001424
#108340:00001424
#1093a0:14
#109380:00240000
#109320:0014
#109340:00000024
#1103a0:14
#110380:00240000
#110320:0014
#110340:00000024
#1123a0:14
#112380:00000024
#113320:14340000
#113340:00003424
#1143a0:14340000
#114380:00003424
#115340:14340000
#115320:00003424
#116380:14340000
#1163a0:00003424
#121340:14340000
#121320:00003424
#122380:14340000
#1223a0:00003424
#123320:14340000
#123340:00003424
#1243a0:14340000
#124380:00003424
#128360:14003400003400003400003400002400
