This file was generated by Ched 2.7.0.0.
#TITLE ""
#ARTIST ""
#DESIGNER ""
#DIFFICULTY 0
#PLAYLEVEL
#SONGID ""
#WAVE ""
#WAVEOFFSET 0
#JACKET ""
#REQUEST "ticks_per_beat 480"
#00002: 4
#BPM01: 200
#00008: 01
#TIL00: ""
#VOLUME: ""
#HISPEED 00
#MEASUREHS 00
#0101a:14
#01114:14
#01214:14
#01318:14
#01418:14
#01512:14
#01612:14
#01918:14
#0211a:14
#02214:14
#02318:14
#02412:14
#0291a:14
#03014:14
#03118:14
#03212:14
#04918:0016
#04912:26
#04910:41
#05312:1616
#05418:1616
#05518:0016
#05512:16
#05118:16
#05112:0016
#05712:0016
#05718:26
#06118:1616
#06212:1616
#05912:16
#05918:0016
#05910:41
#01814:14
#02012:14
#0251a:14
#02618:14
#02712:14
#02814:14
#0171a:14
#01710:41
#06318:16
#06312:0016
#08218:14
#08214:0014
#08112:0014
#0811a:24
#0831a:14
#08312:0014
#07812:1414
#0771a:1414
#07918:1414
#08014:1414
#08512:0016
#08518:26
#0851f:21
#08618:1616
#08610:41
#08918:16
#08912:0016
#09018:16
#09012:0016
#09112:0016
#09118:16
#08712:16
#08718:0016
#08812:1616
#09318:0016
#09312:26
#09412:1616
#09712:16
#09718:0016
#09518:16
#09512:0016
#09618:1616
#09918:16
#09912:0016
#0751f:11
#0091a:24
#07310:41
#03310:41
#001380:14
#002380:24
#003340:14
#004340:24
#0053a0:14
#0063a0:24
#007320:14
#008320:24
#0333a0:14
#0343a0:24
#035320:14
#036320:24
#037380:1434
#038380:24
#039340:1434
#040340:24
#0413a0:14
#0423a0:24
#043320:14
#044320:24
#045380:1600000000000036
#046380:0000003600000000
#047380:3600003600360036
#048380:0026
#050320:1626
#052380:1626
#056320:1626
#058380:1626
#060320:1626
#064380:1626
#065320:1600000000000036
#066320:0000003600000000
#067320:3600003600360036
#068320:0026
#0693a0:14
#070380:0024
#071340:14
#072320:0024
#073380:14
#0743a0:0024
#075320:14
#076340:0024
#092380:1626
#098320:1626
#100380:1626
#101320:1600000000000036
#102320:0000003600000000
#103320:3600003600360036
#105320:00260000
