This file was generated by Ched 2.7.0.0.
#TITLE ""
#ARTIST ""
#DESIGNER ""
#DIFFICULTY 0
#PLAYLEVEL
#SONGID ""
#WAVE ""
#WAVEOFFSET 0
#JACKET ""
#REQUEST "ticks_per_beat 480"
#00002: 4
#BPM01: 200
#00008: 01
#TIL00: ""
#VOLUME: ""
#HISPEED 00
#MEASUREHS 00
#00216:1200001200000000
#0021a:0012000000000000
#0021c:0000001200000000
#00118:0000120000000012
#00112:22
#00114:0000002200220000
#00616:13
#00619:0013000000000000
#00618:0000001300000000
#00612:0000001300000000
#00518:00120000
#0051a:1200000000000013
#0051b:0000000000130000
#00514:22
#00516:0000002200000000
#00512:0000000000230000
#01117:00000013000000000000000000000000
#0111b:1313
#01112:0000002400002400
#01618:0000000000130013
#01615:00000013
#01815:0000000000130000
#01818:00000013
#01812:0013000000000013
#0181b:1300001300000000
#01816:13
#0191b:13
#01916:0013000000000000
#01919:00130000
#01914:0000001300000000
#01918:0000000000000013
#01915:00000013
#0201b:0000000000130000
#02018:00000013
#02015:0000001300000013
#02114:00000013
#02112:13
#02117:0013
#02116:00130000
#02119:00000013
#0211b:00230000
#02214:0000000000130000
#02219:00000013
#02216:0013000000000013
#02217:0000001300000000
#0221b:1323000000000000
#0231b:13130000
#02319:0000001300000000
#02312:00000013
#02314:0000000000000013
#02416:13
#0241b:0013000000000000
#02417:00130000
#02415:0000000000130013
#02418:00000013
#02514:0000001300000013
#0251b:23131313
#0261b:0013000000000013
#02618:0000000000130000
#02615:00000013
#02612:1300001300000000
#02617:13
#02712:13
#02717:0013000000000000
#02714:00130000
#02719:0000001300000000
#02718:0000000000001313
#02818:0000001300000013
#0281b:13
#02812:0000130000130000
#02815:0013000000001300
#03112:13130000
#0311b:0000000000000013
#03318:00130000
#03315:0000001300000000
#0331a:0000000000000024
#03312:2300000000000024
#0331b:23
#03310:41
#03418:0000000000130000
#03415:00000013
#0341b:0000000000000013
#0341a:0024000000000000
#03416:00240000
#03412:0000002400000000
#0351b:00131300
#03518:13
#03516:0013
#03512:1300000000002323
#03612:0000000000130000
#03618:00000013
#03615:0000000000000013
#03616:0013000000000000
#0361b:0013000000000000
#03617:0000001300000000
#03614:00330000
#0371b:13131300
#03716:0000001300000000
#03718:0000000000130013
#03712:1300000000000013
#03715:00000013
#0381b:0013000000130000
#03812:0000001300000000
#03818:0000001300000013
#03815:0013000000001300
#0391b:1300000000000013
#03912:13131300
#03917:0000001300000000
#03915:0000000000130013
#03918:00000013
#04012:0013000000130000
#04015:0000001300001300
#04018:0013000000000013
#0401b:0000001300000000
#04115:0000130000130000
#04118:0000001300001300
#04112:2300000013000024
#0411a:0000000000000024
#0411b:23
#04314:0013
#04317:0000001300000000
#04319:0000000000130000
#04316:00000013
#0431b:1300000000000013
#04312:00130000
#04315:13
#04412:0013000000000000
#04417:0013000000001300
#04416:0000001300000000
#04419:00330000
#04812:0000000000140000
#0481a:00000014
#04814:0000000000000014
#04915:00130000
#04912:0013
#04914:0000000000130000
#04916:00000013
#04917:0013
#04918:24
#04910:41
#05015:0000000000130000
#05018:00000013
#0501b:0013000000000013
#05019:00130000
#05017:0000001300000000
#05016:0013000000000000
#05116:0000001300000013
#05112:1300000000130000
#0511b:0000001300000013
#05117:1300000000130000
#05119:00000033
#05114:00000033
#05218:0000000000130013
#05215:00000013
#05212:0013000000000000
#05217:0013000000000000
#05312:1300000000000013
#0531b:00130013
#05318:0000001300130000
#05315:0013
#0541b:0013000000130000
#05415:00000013
#05418:0000000000000013
#05416:0013000000000000
#05419:00330000
#05414:00330000
#05516:0014001400140024
#05512:2424
#0551a:00240024
#0561b:0000000000130000
#05618:00000013
#05615:0000000000000013
#0571b:0000000013000013
#05718:0000000000130000
#05715:00000013
#05717:13
#05712:1300000000000013
#05817:0013000000000000
#05818:0000000000130013
#05815:00000013
#05812:0013000000000000
#05816:0000001300000000
#05819:00330000
#05912:0000131300000000
#0591b:1300000000130013
#05915:13
#05917:0000001300000000
#05916:00000013
#05910:41
#0601b:0000000000130000
#06015:0000001300001300
#06018:0000000000000013
#06017:0013000000000000
#06118:00130013
#06115:0000001300130000
#0611b:0013
#06112:0000000000000024
#0611a:0000000000000024
#06418:0000000000120012
#06416:0013000000001200
#0641b:00130000
#06616:0012000000000000
#0661a:00120000
#06614:0000001200000000
#06618:0000000000120000
#06718:12
#06715:0012000000000000
#0671a:00120000
#06717:0000001200000000
#06716:00000012
#06719:0000000000120000
#0671b:0000000000000012
#07712:1600323200320032
#07719:00140000
#07718:0014
#07717:00000014
#0771a:24
#09918:0013000000001300
#0991b:1300001300130000
#09915:0000130000000013
#09912:13
#10012:13
#10018:0013000000120012
#10016:00000012
#1001b:0000001300000000
#10015:0000001300000000
#06215:00000013
#06218:0000000000130013
#06212:0000002400000000
#0621a:0024000000000000
#06216:00240000
#06312:13000013
#06315:0000130000130000
#0631b:1300001300000000
#06318:0013
#10312:0000000000000012
#1031a:0000001200120000
#0691c:0000000000000012
#06912:1200323200000000
#0701a:0000000000120000
#07014:00000012
#07018:0032320000000000
#07118:0000000000000012
#07116:1200323200000000
#07214:0000000000120000
#0721a:00000012
#0721c:0032320000000000
#0731c:0000000000000012
#07318:1200323200000000
#07316:0000000000000012
#07312:1200323200000000
#07310:41
#0741b:0000000000120000
#07419:00000012
#07415:0000000000120000
#07413:00000012
#07418:0032320000000000
#07412:0032320000000000
#07512:0000000000000012
#07516:1200323200000000
#07518:0000000000000012
#0751c:1200323200000000
#0751f:11
#07613:0000000000120000
#07615:00000012
#07619:0000000000120000
#0761b:00000012
#07616:0032320000000000
#0761c:0032320000000000
#07918:16
#07913:00140000
#07914:0014
#07915:00000014
#0791c:0000323200320032
#03217:13
#03216:0013001300000000
#0321b:0000130000130000
#03218:00000013
#03215:0000000000000013
#00418:1200001200000000
#00414:0012000000000000
#00412:0000001200000000
#00316:0000120000000012
#0031c:22
#0031a:0000002200220000
#00817:13
#00814:0013000024000000
#00815:0000001300000000
#00818:0024
#00716:00120000
#00713:0000000000000013
#00714:12
#00712:0000000000130000
#0071a:22
#00718:0000002200000000
#0071b:0000000000230000
#01016:1313
#01012:00000013000000000000000000000000
#0101a:0000002400002400
#00912:0013
#0091a:0000002400002400
#01217:1313
#0121b:00000013000000000000000000000000
#01212:0000002400002400
#01316:00000013000000000000000000000000
#01312:1313
#01317:1313
#0131a:0000002400002400
#01417:00000013000000000000000000000000
#0141b:1313
#01416:1313
#01412:0000002400002400
#01516:00000013000000000000000000000000
#01512:1313
#01517:1313
#0151a:0000002400002400
#01719:0000001300000013
#01712:23131313
#01710:41
#06518:0000000000000012
#06513:0000321232000000
#06516:12
#07816:14
#07817:00140000
#07818:0014
#07819:00000014
#07812:1232323200323200
#08016:14
#08015:00140000
#08014:0014
#08013:00000014
#0801c:1232323200323200
#0841a:0000000000140000
#08412:00000014
#08418:0000000000000014
#08518:00130000
#0851b:0013
#08519:0000000000130000
#08517:00000013
#08516:0013
#08514:24
#0851f:21
#08618:0000000000130000
#08615:00000013
#08612:0013000000000013
#08614:00130000
#08616:0000001300000000
#08617:0013000000000000
#08610:41
#08717:0000001300000013
#0871b:1300000000130000
#08712:0000001300000013
#08716:1300000000130000
#08714:00000033
#08719:00000033
#08815:0000000000130013
#08818:00000013
#0881b:0013000000000000
#08816:0013000000000000
#0891b:1300000000000013
#08912:00130013
#08915:0000001300130000
#08918:0013
#09012:0013000000130000
#09018:00000013
#09015:0000000000000013
#09017:0013000000000000
#09014:00330000
#09019:00330000
#09116:0014001400140024
#0911a:2424
#09112:00240024
#09212:0000000000130000
#09215:00000013
#09218:0000000000000013
#09312:0000000013000013
#09315:0000000000130000
#09318:00000013
#09316:13
#0931b:1300000000000013
#09416:0013000000000000
#09415:0000000000130013
#09418:00000013
#0941b:0013000000000000
#09417:0000001300000000
#09414:00330000
#0951b:0000131300000000
#09512:1300000000130013
#09518:13
#09516:0000001300000000
#09517:00000013
#09612:0000000000130000
#09618:0000001300001300
#09615:0000000000000013
#09616:0013000000000000
#09715:00130013
#09718:0000001300130000
#09712:0000000013000024
#0971a:0000000000000024
#09818:00000013
#09815:0000000000130013
#0981a:0000002400000000
#09812:0024000000000000
#09816:00240000
#04215:0000000000130000
#04218:00000013
#04212:0024000000000013
#04216:00240000
#0421a:0000002400000000
#02919:00000013
#0291b:13
#02916:0013
#02917:00130000
#02914:00000013
#02912:00230000
#03019:0000000000130000
#03014:00000013
#03017:0013000000000013
#03016:0000001300000000
#03012:1323000000000000
#1011c:0000000000000012
#1021a:0012000000000000
#10218:0000001200000000
#10416:00000012
#08212:1232323200323200
#0821a:00240024
#08216:2424
#08112:1600323200320032
#0811a:00240024
#08116:0024
#08318:16
#08312:00240024
#08316:0024
#0831c:0000323200320000
#04713:3a00003a003a003a
#04513:0000003a0000003a
#04613:0000003a00000000
#00958:14
#00954:14
#00952:0063
#00256:0000005200000000
#01157:00000023000000000000000000000000
#0115b:6353
#02652:0000001300000000
#02657:0000001300000000
#0265b:0053000000000000
#02055:0000001300000000
#02858:0000001300000000
#0285b:23
#02852:00230000
#02855:0063000000000000
#03552:5300000000000053
#0355b:0063
#03855:0013000000000000
#03858:0000001300000000
#03758:0000000000000013
#0395b:53
#03955:0000000000000013
#04456:0000005300000000
#04457:0063000000000000
#04958:14
#04957:0053
#05156:0000005300000053
#05152:5300000000530000
#0515b:0000005300000053
#05157:5300000000530000
#0545b:0023000000000000
#05456:0023000000000000
#05352:6300000000000053
#05857:0023000000000000
#05952:0000006300000000
#0595b:6300000000000063
#0575b:0000130000000053
#05757:53
#05752:53
#05756:00130000
#0675b:0000000000000052
#07752:56
#06057:0023000000000000
#0605b:0000004300000000
#06055:0000003300000000
#10055:0000003300000000
#1005b:0000004300000000
#10352:0000000000000062
#06952:52
#0695c:0000000000000052
#07158:0000000000000062
#07156:62
#0735c:0000000000000052
#07358:52
#07356:0000000000000052
#07352:52
#07552:0000000000000062
#07556:62
#07558:0000000000000062
#0755c:62
#07958:66
#03256:0000005300000000
#03257:23
#03656:0053000000000000
#05652:0000001400000000
#05556:0000000000000054
#00458:0000006200000000
#01056:6353
#01052:00000023000000000000000000000000
#01257:5363
#0125b:00000023000000000000000000000000
#01356:00000023000000000000000000000000
#01352:5363
#01457:00000023000000000000000000000000
#0145b:6353
#01556:00000023000000000000000000000000
#01552:5363
#02256:0023000000000000
#02257:0000001300000000
#02457:00230000
#0245b:0053004300000000
#02758:0000000000000053
#01852:0063000000000000
#0185b:0000001300000000
#01856:0000001300000000
#0315b:0000000000000053
#04055:0000001300000000
#04058:0013000000000000
#05252:0023000000000000
#05257:0023000000000000
#0525b:0000004300000000
#06553:0000002200000000
#06556:62
#07852:22
#0805c:22
#08757:0000006300000063
#0875b:6300000000630000
#08752:0000006300000063
#08756:6300000000630000
#0895b:5300000000000063
#09052:0023000000000000
#09057:0023000000000000
#09456:0023000000000000
#0955b:0000005300000000
#09552:5300000000000053
#09352:0000130000000063
#09356:63
#0935b:63
#09357:00130000
#09656:0023000000000000
#09658:0000004300000000
#09652:0000003300000000
#08556:0063
#08554:14
#0885b:0023000000000000
#08856:0023000000000000
#08852:0000003300000000
#09156:0000000000000064
#0925a:0000001400000000
#08657:0053000000000000
#05056:0063000000000000
#0435b:6300000000000063
#02156:00230000
#02157:0013
#03057:0023000000000000
#03056:0000001300000000
#02957:00230000
#02956:0013
#0335b:13
#03352:13
#0415b:13
#04152:13
#10456:00000022
#00652:0000005300000000
#08252:22
#08152:56
#08358:66
#000380:0000000012525252
#000390:00000000000000000052005200520052
#001380:22
#002360:0000001200000000
#002320:00000022
#004380:0000001200000000
#0043c0:00000022
#006320:0000001300000000
#006360:00000023
#008380:0000000000000000000000000000000014545454545454545454545454545454
#008390:00000000000000000000000000000000000000000000000000000000000000000055005500550055005500550055005500550055005500550055005500550055
#009380:24
#008341:0000000000000000000000000000000014545454545454545454545454545454
#008321:00000000000000000000000000000000000000000000000000000000000000000055005500550055005500550055005500550055005500550055005500550055
#009341:24
#009321:0013
#009361:00000023
#010361:1300002300000000
#010321:00000053000000000000000000000000
#010361:0013
#010321:00000023
#0113b1:1300002300000000
#011371:00000053000000000000000000000000
#0113b1:0013
#011371:00000023
#012371:1300002300000000
#0123b1:00000053000000000000000000000000
#012371:0013
#0123b1:00000023
#013321:1300002300000000
#013361:00000053000000000000000000000000
#013321:0013
#013361:00000023
#0143b1:1300002300000000
#014371:00000053000000000000000000000000
#0143b1:0013
#014371:00000023
#015321:1300002300000000
#015361:00000053000000000000000000000000
#015321:0013
#015361:00000023
#0173b1:13
#017371:00230000
#0173b1:0013
#017371:00000023
#018321:0013000000000000
#018361:0000002300000000
#019371:0013
#0193b1:00000023
#020351:1323000000000000
#020380:0013002300000000
#021360:00130000
#021320:0023
#022360:0013000000000000
#022320:0000002300000000
#023360:13330000
#023340:0000003300000000
#023320:0023
#023371:00001333
#023391:0000000000000033
#0243b1:23
#0243b1:0013002300000000
#024371:00530000
#025321:13
#025361:00230000
#025321:0013
#025361:00000023
#0263b1:0013000000000000
#026371:0000002300000000
#027361:0013
#027321:00000023
#027381:0000000000000013
#0283b1:53
#028381:0023000000000000
#028350:0013002300000000
#028320:00530000
#029370:00130000
#0293b0:0023
#030370:0013000000000000
#0303b0:0000002300000000
#031370:13230000
#0313b0:0000001323000000
#031321:0000000013230000
#031380:0000000000132300
#031351:0000000000001323
#0313b0:0000000000000013
#032370:53
#0323b0:0023000000000000
#032360:0000001300000000
#032320:0000000000230000
#033380:00001323
#035320:13
#035360:00230000
#0353b0:0013
#035370:00000023
#035320:0000000000000013
#036360:0033000000000000
#036340:00330000
#036320:0000002300000000
#0393b0:13
#039370:00230000
#0413a0:0000000000000014
#0423a0:0024000000000000
#0433b0:13
#043370:00230000
#0433b0:0000000000000013
#044370:0033000000000000
#044390:00330000
#0443b0:0000002300000000
#044361:0000001300000000
#044321:00000023
#045331:1a00003a0000003a
#046331:0000003a00000000
#047331:3a00003a003a003a
#048371:0000002200000000
#049371:0013
#0493b1:0000000000005323
#049360:0000000000000013
#050360:0033000000000000
#050320:0000002300000000
#051370:13
#0513b0:00230000
#051321:13
#051361:00230000
#0513b1:0000001300000033
#051371:0000000000330000
#051391:00000033
#052371:0053000000000000
#0523b1:0000002300000000
#051360:0000001300000033
#051320:0000000000330000
#051340:00000033
#052320:0053000000000000
#052360:0000002300000000
#053320:13
#053360:00230000
#053320:0000000000000013
#054360:0033000000000000
#054340:00330000
#054320:0000002300000000
#0543b1:0013000000000000
#054391:00330000
#054371:0000002300000000
#055361:0000000000000014
#056321:0000002400000000
#057371:13
#0573b1:00230000
#057320:13
#057360:00230000
#0573b0:0000000000000013
#058370:0033000000000000
#058390:00330000
#0583b0:0000002300000000
#0593b0:13
#059370:00230000
#059320:0000001300000000
#059360:0000000000230000
#0593b0:0000000000000013
#060370:0053000000000000
#0603b0:0000002300000000
#061320:13230000
#062320:0000001400240000
#063370:0000000000000013
#0643b0:0023000000000000
#064360:0000001300000000
#064320:0000000000230000
#065360:12000022
#065330:0000323232000000
#066330:00000012
#067330:22
#0673b0:0000000000000012
#068380:0022
#069320:1200323200000000
#069360:0000000000220000
#0693c0:0000000000000012
#070380:0032322200000000
#071360:1200323200000000
#071320:0000000000220000
#071380:0000000000000012
#0723c0:0032322200000000
#073380:1200323200000000
#0733c0:0000000000220000
#073321:1200323200000000
#073361:0000000000220000
#0733c1:0000000000000012
#074381:0032322200000000
#073360:0000000000000012
#074320:0032322200000000
#075360:1200323200000000
#075320:0000000000220000
#0753c1:1200323200000000
#075381:0000000000220000
#075321:0000000000000012
#076361:0032322200000000
#075380:0000000000000012
#0763c0:0032322200000000
#077320:1600323200320032
#078320:5232323200323200
#079320:26
#079381:16
#0793c1:0000323200320032
#0803c1:5232323200323200
#081381:26
#081320:1600323200320032
#082320:5232323200323200
#083320:26
#083381:16
#0833c1:0000323200320032
#0843c1:0022
#083360:0000000000000014
#084360:0024
#085360:0013
#085320:0000000000005323
#085371:0000000000000013
#086371:0033000000000000
#0863b1:0000002300000000
#087361:13
#087321:00230000
#0873b0:13
#087370:00230000
#087320:0000001300000033
#087360:0000000000330000
#087340:00000033
#088360:0053000000000000
#088320:0000002300000000
#087371:0000001300000033
#0873b1:0000000000330000
#087391:00000033
#0883b1:0053000000000000
#088371:0000002300000000
#0893b1:13
#089371:00230000
#0893b1:0000000000000013
#090371:0033000000000000
#090391:00330000
#0903b1:0000002300000000
#090320:0013000000000000
#090340:00330000
#090360:0000002300000000
#091360:0000000000000014
#0923a0:0000002400000000
#093360:13
#093320:00230000
#0933b1:13
#093371:00230000
#093321:0000000000000013
#094361:0033000000000000
#094341:00330000
#094321:0000002300000000
#095321:13
#095361:00230000
#0953b1:0000001300000000
#095371:0000000000230000
#095321:0000000000000013
#096361:0053000000000000
#096321:0000002300000000
#0973b1:13230000
#0983a1:0000001400240000
#099321:0000001300000000
#099351:0000000000230000
#101321:1200323232003232
#102321:0032323200323232
#103321:3200323200323232
#104361:00000052
#105321:0022000000000000
#1013a0:12220000
#101380:0000001200220000
#102380:0000000000125252
#102390:00000000000000000000005200520052
#103380:32220000
#1033c0:000000000000000000000000000000000000000000125252
#1033b0:000000000000000000000000000000000000000000000000000000000000000000000000000000000000005200520052
#1043c0:520052000000000000000000000000000000000000000000000000000000005200520052000000000000000000000000
#1043b0:005200000000000000000000000000000000000000000000000000000000000052005200520000000000000000000000
#105380:525252220000000000000000000000000000000000000000
#105390:005200520052000000000000000000000000000000000000000000000000000000000000000000000000000000000000
